<?xml version="1.0" standalone="no"?>
<!DOCTYPE svg PUBLIC "-//W3C//DTD SVG 1.1//EN" "http://www.w3.org/Graphics/SVG/1.1/DTD/svg11.dtd" >
<svg xmlns="http://www.w3.org/2000/svg" xmlns:xlink="http://www.w3.org/1999/xlink" version="1.1">
<metadata>
Created by FontForge 20170731 at Mon Feb 13 21:55:15 2006
 By Aleksey,,,
Copyright (c) 1988, 1990, 1993 Adobe Systems Incorporated.  All Rights Reserved.Helvetica is a trademark of Linotype-Hell AG and/or its subsidiaries.
</metadata>
<defs>
<font id="HelveticaNeue-ThinItalic" horiz-adv-x="556" >
  <font-face 
    font-family="Helvetica Neue"
    font-weight="100"
    font-style="italic"
    font-stretch="normal"
    units-per-em="1000"
    panose-1="0 0 0 0 0 0 0 0 0 0"
    ascent="800"
    descent="-200"
    x-height="514"
    cap-height="714"
    bbox="-169 -214 1075 927"
    underline-thickness="50"
    underline-position="-200"
    slope="-12"
    unicode-range="U+0020-FB02"
  />
<missing-glyph horiz-adv-x="278" 
 />
    <glyph glyph-name=".notdef" horiz-adv-x="278" 
 />
    <glyph glyph-name=".null" horiz-adv-x="0" 
 />
    <glyph glyph-name="nonmarkingreturn" horiz-adv-x="333" 
 />
    <glyph glyph-name="space" unicode=" " horiz-adv-x="278" 
 />
    <glyph glyph-name="exclam" unicode="!" horiz-adv-x="204" 
d="M42 103h50l-23 -103h-50zM94 183h-29l59 311l47 220h42l-47 -220z" />
    <glyph glyph-name="quotedbl" unicode="&#x22;" horiz-adv-x="315" 
d="M125 485v229h38v-229h-38zM243 485v229h38v-229h-38z" />
    <glyph glyph-name="numbersign" unicode="#" 
d="M186 470l31 220h33l-31 -220h169l31 220h33l-31 -220h110l-5 -33h-110l-24 -173h111l-5 -33h-111l-32 -231h-33l32 231h-169l-32 -231h-33l32 231h-117l5 33h117l24 173h-118l5 33h118zM214 437l-24 -173h169l24 173h-169z" />
    <glyph glyph-name="dollar" unicode="$" 
d="M287 342l-65 -320q6 -1 20 -1q81 0 144.5 45t63.5 128q0 33 -13 58t-39 42t-50.5 27t-60.5 21zM270 391l60 302q-93 0 -149 -39t-56 -115q0 -65 37 -96t108 -52zM358 693l-63 -311q39 -13 60 -21t51 -24t44.5 -33.5t26 -45t11.5 -61.5q0 -106 -72.5 -160t-176.5 -54
q-5 0 -13 0.5t-12 0.5l-19 -92h-27l20 95q-102 16 -146.5 71t-44.5 128q0 23 3 53h38q-3 -23 -3 -53q0 -59 39 -103t122 -57l66 327q-40 12 -66 23.5t-54 31t-41.5 50t-13.5 71.5q0 100 66.5 151t166.5 51q12 0 19 -1l15 76h27l-16 -78q82 -9 129.5 -53.5t47.5 -124.5
q0 -6 -2 -38h-38q0 10 1 25t1 18q0 63 -40.5 97t-105.5 41z" />
    <glyph glyph-name="percent" unicode="%" horiz-adv-x="759" 
d="M196 346q-66 0 -102 35.5t-36 101.5q0 83 49 151t129 68q62 0 98.5 -35.5t36.5 -98.5q0 -53 -19 -102.5t-60.5 -84.5t-95.5 -35zM191 379q69 0 105.5 58.5t36.5 131.5q0 48 -25 74t-72 26q-67 0 -103.5 -60.5t-36.5 -131.5q0 -46 25 -72t70 -26zM522 21q69 0 105.5 58.5
t36.5 131.5q0 48 -25 74t-72 26q-67 0 -103.5 -60.5t-36.5 -131.5q0 -46 25 -72t70 -26zM527 -12q-66 0 -102 35.5t-36 101.5q0 83 49 151t129 68q62 0 98.5 -35.5t36.5 -98.5q0 -53 -19 -102.5t-60.5 -84.5t-95.5 -35zM131 -34h-41l532 758h41z" />
    <glyph glyph-name="ampersand" unicode="&#x26;" horiz-adv-x="593" 
d="M396 129l-150 231q-4 -2 -28.5 -14.5t-31 -16t-28 -15.5t-29 -19t-24 -20t-23 -24.5t-15.5 -26.5t-12 -31.5t-3 -35.5q0 -58 45.5 -97t111.5 -39q50 0 101 29t86 79zM280 379l140 -217q36 55 51 129h38q-22 -97 -67 -162l83 -129h-45l-63 98q-90 -110 -208 -110
q-87 0 -141 46.5t-54 126.5q0 35 12.5 65.5t28.5 51t47 42t51.5 32.5t57.5 30q11 5 16 8q-2 4 -11 19.5t-12 20.5t-10.5 19.5t-11 21.5t-8.5 20.5t-7 23t-4 21.5t-2 23q0 73 46.5 108t115.5 35q66 0 103.5 -37.5t37.5 -85.5q0 -30 -12.5 -57t-28 -45.5t-45 -39t-47.5 -31
t-51 -27.5zM317 669q-48 0 -83 -30.5t-35 -78.5q0 -13 3 -28t6.5 -25.5t12 -27t12 -23.5t15 -25.5t13.5 -22.5q2 1 20 10.5t22.5 12t21.5 12t23 14t19.5 14.5t19.5 17t15.5 18t13 20.5t7 21.5t3.5 25q0 42 -30.5 69t-78.5 27z" />
    <glyph glyph-name="quotesingle" unicode="'" horiz-adv-x="204" 
d="M128 485v229h38v-229h-38z" />
    <glyph glyph-name="parenleft" unicode="(" horiz-adv-x="241" 
d="M279 731h33q-229 -268 -229 -618q0 -153 46 -297h-33q-51 147 -51 317q0 163 62 323t172 275z" />
    <glyph glyph-name="parenright" unicode=")" horiz-adv-x="241" 
d="M-51 -184h-33q229 268 229 618q0 153 -46 297h33q51 -147 51 -317q0 -163 -62 -323t-172 -275z" />
    <glyph glyph-name="asterisk" unicode="*" horiz-adv-x="352" 
d="M189 559l-106 60l17 24l106 -61l28 132h29l-28 -134l125 37l8 -28l-127 -37l68 -103l-25 -15l-72 109l-92 -99l-23 20z" />
    <glyph glyph-name="plus" unicode="+" horiz-adv-x="600" 
d="M281 271v233h38v-233h233v-38h-233v-233h-38v233h-233v38h233z" />
    <glyph glyph-name="comma" unicode="," horiz-adv-x="278" 
d="M-12 -126l7 33q19 6 32 23t17.5 30.5t10.5 39.5h-18l23 103h50l-23 -103q-24 -108 -99 -126z" />
    <glyph glyph-name="hyphen" unicode="-" horiz-adv-x="352" 
d="M267 253h-218l9 38h217z" />
    <glyph glyph-name="period" unicode="." horiz-adv-x="278" 
d="M87 0h-50l23 103h50z" />
    <glyph glyph-name="slash" unicode="/" horiz-adv-x="333" 
d="M-19 -17h-43l410 748h43z" />
    <glyph glyph-name="zero" unicode="0" 
d="M218 21q72 0 128.5 47t87 119t45.5 144t15 136q0 202 -162 202q-81 0 -143.5 -65t-93.5 -165.5t-31 -214.5q0 -82 38 -142.5t116 -60.5zM226 -12q-57 0 -98 21t-62.5 57t-30.5 75t-9 83q0 72 17 150.5t51 154t95.5 124.5t139.5 49q103 0 153 -65t50 -170q0 -46 -7 -96.5
t-21.5 -105t-40 -103.5t-57.5 -88.5t-79 -62.5t-101 -23z" />
    <glyph glyph-name="one" unicode="1" 
d="M142 529l7 35q63 9 112.5 40t103.5 86h38l-148 -690h-44l133 619l-2 2q-81 -72 -200 -92z" />
    <glyph glyph-name="two" unicode="2" 
d="M442 33l-6 -33h-452q3 48 22.5 88.5t54 73t68 55.5t80.5 48q8 5 44 24t46 24.5t40 23t40 26t32 25.5t30 29.5t19.5 30t15.5 35.5t4 38q0 67 -42.5 107.5t-111.5 40.5q-89 0 -141.5 -57.5t-58.5 -149.5h-38q4 107 68 173.5t169 66.5q85 0 139 -48t54 -131q0 -32 -7.5 -60
t-26 -51.5t-34.5 -40.5t-48 -37.5t-49.5 -30.5t-55.5 -30q-128 -69 -173 -106q-76 -61 -95 -134h413z" />
    <glyph glyph-name="three" unicode="3" 
d="M133 483h-38q14 99 75 159t158 60q81 0 138 -45t57 -124q0 -71 -45 -118.5t-116 -53.5v-2q53 -9 83.5 -50.5t30.5 -97.5q0 -104 -70 -162.5t-180 -60.5q-98 2 -154.5 54t-56.5 151q0 1 3 37h38q-3 -18 -3 -37q0 -82 47 -127t133 -45t145.5 50.5t59.5 131.5q0 83 -51 112
t-152 29l7 33q36 0 65.5 2.5t64 11.5t58 24.5t39.5 44t16 67.5q0 68 -45.5 105t-114.5 37q-79 0 -127.5 -51.5t-64.5 -134.5z" />
    <glyph glyph-name="four" unicode="4" 
d="M50 209h293l92 419h-2zM0 176l8 39l436 475h42l-103 -481h112l-8 -33h-111l-37 -176h-40l37 176h-336z" />
    <glyph glyph-name="five" unicode="5" 
d="M63 340l121 350h358l-10 -33h-325l-92 -266l2 -2q25 33 72 53.5t94 20.5q93 0 148 -52t55 -146q0 -120 -70.5 -198.5t-185.5 -78.5q-99 0 -152.5 50.5t-56.5 114.5q-1 25 3 57h38q-3 -17 -3 -48q0 -22 9.5 -45t28 -45.5t53.5 -36.5t80 -14q99 0 158.5 69.5t59.5 167.5
q0 77 -47.5 124.5t-117.5 47.5q-117 0 -179 -92z" />
    <glyph glyph-name="six" unicode="6" 
d="M241 21q94 0 148.5 68.5t54.5 163.5q0 78 -50 124t-127 46q-88 0 -145.5 -66.5t-57.5 -156.5q0 -80 48.5 -129.5t128.5 -49.5zM526 515h-38q0 154 -156 154q-188 0 -258 -333l2 -2q30 59 82.5 90.5t119.5 31.5q90 0 147 -57t57 -147q0 -109 -67 -186.5t-175 -77.5
q-107 0 -160.5 63.5t-53.5 171.5q0 57 10 119t34.5 127t59 116t89 84t119.5 33q88 0 138 -49t50 -138z" />
    <glyph glyph-name="seven" unicode="7" 
d="M116 657l8 33h437l-9 -38q-288 -294 -403 -652h-44q98 330 406 657h-395z" />
    <glyph glyph-name="eight" unicode="8" 
d="M237 21q89 0 150 48.5t61 134.5q0 74 -56.5 110.5t-136.5 36.5q-85 0 -144 -46t-59 -127q0 -76 53 -116.5t132 -40.5zM235 -12q-93 0 -157 48t-64 137q0 90 54.5 141t145.5 60v2q-45 11 -76 50t-31 86q0 91 64 140.5t158 49.5q80 0 137 -43t57 -120q0 -71 -46 -118.5
t-117 -54.5v-2q126 -34 126 -167q0 -96 -75.5 -152.5t-175.5 -56.5zM329 669q-76 0 -130 -40.5t-54 -112.5q0 -65 45.5 -97.5t113.5 -34.5q78 0 129.5 39.5t51.5 115.5q0 63 -45.5 96.5t-110.5 33.5z" />
    <glyph glyph-name="nine" unicode="9" 
d="M30 173h38q0 -75 41 -113.5t115 -38.5q182 0 263 335l-2 2q-72 -124 -207 -124q-90 0 -147 56t-57 146q0 109 67 187.5t175 78.5q107 0 160.5 -64.5t53.5 -172.5q0 -73 -17.5 -151.5t-52.5 -154t-98 -123.5t-144 -48q-87 0 -137.5 50.5t-50.5 134.5zM315 669
q-93 0 -148 -70t-55 -164q0 -77 50 -122.5t127 -45.5q87 0 145 66.5t58 154.5q0 79 -48.5 130t-128.5 51z" />
    <glyph glyph-name="colon" unicode=":" horiz-adv-x="278" 
d="M179 411h-50l23 103h50zM87 0h-50l23 103h50z" />
    <glyph glyph-name="semicolon" unicode=";" horiz-adv-x="278" 
d="M-12 -126l7 33q19 6 32 23t17.5 30.5t10.5 39.5h-18l23 103h50l-23 -103q-24 -108 -99 -126zM179 411h-50l23 103h50z" />
    <glyph glyph-name="less" unicode="&#x3c;" horiz-adv-x="600" 
d="M554 514v-42l-475 -218l475 -220v-42l-508 236v52z" />
    <glyph glyph-name="equal" unicode="=" horiz-adv-x="600" 
d="M552 369v-38h-504v38h504zM552 175v-38h-504v38h504z" />
    <glyph glyph-name="greater" unicode="&#x3e;" horiz-adv-x="600" 
d="M46 -8v42l475 218l-475 220v42l508 -236v-52z" />
    <glyph glyph-name="question" unicode="?" horiz-adv-x="519" 
d="M241 181h-44q4 45 18.5 80.5t37 59t43 39t48.5 33t42 29.5q75 65 75 136q0 65 -40.5 100t-107.5 35q-156 0 -187 -199h-44q11 102 70 169.5t161 67.5q79 0 135.5 -43t56.5 -120q0 -65 -28.5 -108.5t-97.5 -88.5q-53 -35 -73.5 -52.5t-37.5 -49.5t-27 -88zM155 0l23 103
h50l-23 -103h-50z" />
    <glyph glyph-name="at" unicode="@" horiz-adv-x="800" 
d="M425 547q-79 0 -135.5 -86.5t-56.5 -173.5q0 -55 29.5 -88.5t73.5 -33.5q28 0 59.5 22t56.5 57q28 39 46.5 92t18.5 93q0 18 -3 34.5t-11.5 37.5t-28.5 33.5t-49 12.5zM609 560l-96 -296q-16 -48 -16 -60q0 -15 11.5 -24.5t27.5 -9.5q67 0 123.5 83t56.5 170
q0 120 -91 197.5t-208 77.5q-137 0 -235 -102t-98 -243q0 -143 102.5 -240t232.5 -97q82 0 156 41t119 111h44q-46 -85 -133.5 -135t-185.5 -50q-159 0 -266 109.5t-107 267.5q0 153 109 262t260 109q143 0 241 -88.5t98 -222.5q0 -110 -74 -199t-155 -89q-28 0 -46.5 18.5
t-19.5 52.5h-2q-49 -71 -134 -71q-56 0 -92 44t-36 106q0 110 68.5 204t167.5 94q46 0 76 -26.5t36 -64.5h2l23 71h41z" />
    <glyph glyph-name="A" unicode="A" horiz-adv-x="611" 
d="M380 670l-243 -403h315zM-74 0l439 714h46l133 -714h-44l-41 229h-345l-138 -229h-50z" />
    <glyph glyph-name="B" unicode="B" horiz-adv-x="630" 
d="M187 676l-61 -286h239q95 0 151 43t56 120q0 75 -41.5 99t-123.5 24h-220zM118 352l-67 -314h267q101 0 158.5 49.5t57.5 130.5q0 73 -41.5 103.5t-135.5 30.5h-239zM-1 0l152 714h260q100 0 152.5 -34t52.5 -123q0 -76 -46 -125.5t-125 -58.5v-2q133 -21 133 -156
q0 -39 -14.5 -75.5t-43.5 -68.5t-81.5 -51.5t-120.5 -19.5h-319z" />
    <glyph glyph-name="C" unicode="C" horiz-adv-x="704" 
d="M691 494h-44q-1 94 -63 146.5t-157 52.5q-103 0 -183.5 -61.5t-120.5 -154t-40 -195.5q0 -127 67 -194t179 -67q98 0 177.5 65t103.5 162h44q-23 -114 -118 -189.5t-211 -75.5q-56 0 -105 16t-90.5 50t-66 94.5t-24.5 141.5q0 62 15.5 124.5t48 120.5t77.5 102.5
t109 71.5t137 27q123 0 195.5 -65.5t69.5 -171.5z" />
    <glyph glyph-name="D" unicode="D" horiz-adv-x="685" 
d="M-1 0l151 714h231q140 0 202 -72.5t62 -215.5q0 -78 -25.5 -153t-72.5 -136.5t-121.5 -99t-163.5 -37.5h-263zM186 676l-135 -638h206q71 0 130 24.5t98 64t66 91t38.5 104t11.5 104.5q0 127 -53 188.5t-177 61.5h-185z" />
    <glyph glyph-name="E" unicode="E" 
d="M-1 0l150 714h466l-9 -38h-421l-60 -286h392l-7 -38h-393l-66 -314h434l-8 -38h-478z" />
    <glyph glyph-name="F" unicode="F" horiz-adv-x="519" 
d="M-1 0l149 714h448l-8 -38h-404l-60 -286h362l-7 -38h-363l-73 -352h-44z" />
    <glyph glyph-name="G" unicode="G" horiz-adv-x="741" 
d="M701 498h-44q-15 195 -230 195q-103 0 -183.5 -61.5t-120.5 -154t-40 -195.5q0 -127 67 -194t179 -67q70 0 126.5 25.5t93 69t59.5 92.5t34 104h-262l8 38h300l-74 -350h-33l33 147h-4q-52 -81 -119 -122.5t-166 -41.5q-56 0 -105 16t-90.5 50t-66 94.5t-24.5 141.5
q0 62 15.5 124.5t48 120.5t77.5 102.5t109 71.5t137 27q119 0 194 -58t81 -175z" />
    <glyph glyph-name="H" unicode="H" horiz-adv-x="667" 
d="M-1 0l153 714h44l-69 -324h445l69 324h44l-153 -714h-44l76 352h-445l-76 -352h-44z" />
    <glyph glyph-name="I" unicode="I" horiz-adv-x="185" 
d="M-1 0l151 714h44l-151 -714h-44z" />
    <glyph glyph-name="J" unicode="J" horiz-adv-x="481" 
d="M345 211l110 503h44l-105 -481q-11 -52 -22 -86t-29 -68t-41 -53t-59 -31t-83 -12q-75 0 -124 40.5t-49 114.5q0 40 10 87h44q-10 -43 -10 -90q0 -57 41.5 -85.5t100.5 -28.5q42 0 73 14.5t49.5 43.5t29 58.5t20.5 73.5z" />
    <glyph glyph-name="K" unicode="K" horiz-adv-x="611" 
d="M-1 0l150 714h44l-84 -400l2 -2l507 402h63l-384 -302l275 -412h-50l-257 387l-169 -133l-53 -254h-44z" />
    <glyph glyph-name="L" unicode="L" horiz-adv-x="500" 
d="M-1 0l153 714h44l-145 -676h403l-8 -38h-447z" />
    <glyph glyph-name="M" unicode="M" horiz-adv-x="815" 
d="M-1 0l153 714h60l135 -668h2l423 668h65l-155 -714h-44l151 670h-2l-425 -670h-43l-137 670h-2l-137 -670h-44z" />
    <glyph glyph-name="N" unicode="N" horiz-adv-x="685" 
d="M-1 0l153 714h52l313 -670h2l139 670h44l-155 -714h-51l-315 670h-2l-136 -670h-44z" />
    <glyph glyph-name="O" unicode="O" horiz-adv-x="741" 
d="M83 287q0 -121 64.5 -193.5t180.5 -72.5q101 0 180.5 61.5t119.5 153t40 190.5q0 119 -62.5 193t-180.5 74q-151 0 -246.5 -119.5t-95.5 -286.5zM39 288q0 114 46 214.5t135 164.5t201 64q138 0 214.5 -80.5t76.5 -219.5q0 -81 -26.5 -160.5t-74 -143.5t-120.5 -104
t-158 -40q-139 0 -216.5 82.5t-77.5 222.5z" />
    <glyph glyph-name="P" unicode="P" horiz-adv-x="593" 
d="M111 318l-68 -318h-44l153 714h222q56 0 95.5 -6.5t75 -24t53 -52.5t17.5 -89q0 -112 -73 -168t-188 -56h-243zM188 676l-69 -320h250q88 0 145 49t57 137q0 37 -12 62.5t-29 39.5t-47.5 21.5t-55.5 9t-65 1.5h-174z" />
    <glyph glyph-name="Q" unicode="Q" horiz-adv-x="741" 
d="M420 180l96 -90q71 56 111.5 147.5t40.5 188.5q0 119 -62.5 193t-180.5 74q-151 0 -246.5 -119.5t-95.5 -286.5q0 -121 64.5 -193.5t180.5 -72.5q84 0 157 46l-91 85zM617 -56l-101 94q-82 -55 -183 -55q-139 0 -216.5 82.5t-77.5 222.5q0 114 46 214.5t135 164.5t201 64
q138 0 214.5 -80.5t76.5 -219.5q0 -105 -44 -205.5t-122 -163.5l97 -90z" />
    <glyph glyph-name="R" unicode="R" horiz-adv-x="630" 
d="M-1 0l151 714h264q209 0 209 -170q0 -88 -56 -144t-144 -59v-2q102 -17 102 -122q0 -25 -2.5 -75t-2.5 -71q0 -39 11 -71h-44q-9 21 -9 72q0 22 1.5 66t1.5 77q0 68 -40.5 89t-131.5 21h-197l-70 -325h-43zM186 676l-66 -313h259q87 0 143.5 45.5t56.5 126.5
q0 82 -45.5 111.5t-137.5 29.5h-210z" />
    <glyph glyph-name="S" unicode="S" horiz-adv-x="630" 
d="M19 235h45q-1 -10 -1 -42q0 -73 52.5 -122.5t160.5 -49.5q102 0 165 41.5t63 128.5q0 35 -16.5 62t-47.5 44.5t-57.5 27.5t-62.5 21q-7 2 -11 3q-37 12 -56.5 18.5t-51 22.5t-47.5 33.5t-29 47t-13 66.5q0 92 74.5 143t181.5 51q102 0 169.5 -46.5t67.5 -133.5
q0 -23 -3 -41h-44q3 20 3 37q0 72 -55.5 109t-138.5 37q-53 0 -98.5 -14t-79 -50.5t-33.5 -91.5q0 -37 14.5 -64t43 -43.5t56.5 -26.5t69 -22l12 -3q44 -12 73.5 -24.5t61 -33.5t47 -52.5t15.5 -74.5q0 -100 -77 -155t-197 -55q-109 0 -182 54t-73 148v50z" />
    <glyph glyph-name="T" unicode="T" horiz-adv-x="519" 
d="M311 676h-257l9 38h548l-8 -38h-248l-143 -676h-44z" />
    <glyph glyph-name="U" unicode="U" horiz-adv-x="667" 
d="M684 714l-100 -469q-30 -136 -100.5 -199t-206.5 -63q-105 0 -173 53t-68 156q0 32 14 100l90 422h44l-90 -422q-14 -70 -14 -107q0 -81 59.5 -122.5t144.5 -41.5q113 0 173 58.5t83 166.5l100 468h44z" />
    <glyph glyph-name="V" unicode="V" horiz-adv-x="574" 
d="M191 0l-119 714h44l105 -670h2l394 670h44l-418 -714h-52z" />
    <glyph glyph-name="W" unicode="W" horiz-adv-x="907" 
d="M137 0l-59 714h44l47 -664h2l330 664h55l52 -664h2l324 664h45l-354 -714h-49l-54 670h-2l-334 -670h-49z" />
    <glyph glyph-name="X" unicode="X" 
d="M310 363l189 -363h-44l-173 333l-306 -333h-48l339 368l-183 346h44l166 -317l291 317h48z" />
    <glyph glyph-name="Y" unicode="Y" 
d="M190 0l65 300l-191 414h44l174 -378l322 378h55l-362 -421l-63 -293h-44z" />
    <glyph glyph-name="Z" unicode="Z" horiz-adv-x="537" 
d="M-55 38l596 638h-454l9 38h502l-8 -38l-594 -638h489l-7 -38h-541z" />
    <glyph glyph-name="bracketleft" unicode="[" horiz-adv-x="241" 
d="M122 -184h-137l194 915h137l-6 -33h-100l-180 -849h100z" />
    <glyph glyph-name="backslash" unicode="\" horiz-adv-x="333" 
d="M395 -17h-43l-410 748h43z" />
    <glyph glyph-name="bracketright" unicode="]" horiz-adv-x="241" 
d="M95 731h137l-194 -915h-137l6 33h100l180 849h-100z" />
    <glyph glyph-name="asciicircum" unicode="^" horiz-adv-x="600" 
d="M561 237h-42l-218 420l-220 -420h-42l236 453h52z" />
    <glyph glyph-name="underscore" unicode="_" horiz-adv-x="500" 
d="M500 -125h-500v50h500v-50z" />
    <glyph glyph-name="grave" unicode="`" horiz-adv-x="167" 
d="M79 731h48l99 -140h-37z" />
    <glyph glyph-name="a" unicode="a" horiz-adv-x="500" 
d="M362 220l18 70h-2q-26 -26 -160 -38q-43 -1 -72 -5t-60 -16t-47 -38.5t-16 -66.5q0 -54 37 -79.5t94 -25.5q156 0 208 199zM97 366h-39q38 160 221 160q23 0 47 -5t51 -17t44 -38t17 -62q0 -40 -34 -176q-3 -13 -13.5 -56t-15.5 -69t-5 -39q0 -33 28 -33q12 0 34 6
l-6 -34q-19 -5 -44 -5q-24 0 -37 16.5t-13 36.5q0 6 3.5 22.5t4.5 20.5h-2q-29 -52 -83.5 -79t-110.5 -27q-71 0 -115 34t-44 104q0 47 18 79.5t52 49t70.5 23t85.5 7.5q109 4 149 25t40 78q0 105 -129 105q-140 0 -174 -127z" />
    <glyph glyph-name="b" unicode="b" 
d="M-7 0l152 714h38l-65 -300h2q26 48 78.5 80t114.5 32q97 0 144 -58t47 -155q0 -79 -30 -152t-92.5 -123t-143.5 -50q-65 0 -111.5 39.5t-64.5 105.5h-2l-29 -133h-38zM240 21q71 0 124.5 48t77.5 113t24 132q0 80 -40.5 129.5t-117.5 49.5q-53 0 -98 -29t-72.5 -74.5
t-42.5 -96t-15 -96.5q0 -66 44.5 -121t115.5 -55z" />
    <glyph glyph-name="c" unicode="c" horiz-adv-x="519" 
d="M412 168h42q-31 -83 -90.5 -131.5t-144.5 -48.5q-101 0 -149.5 59.5t-48.5 160.5q0 125 79 221.5t199 96.5q82 0 134.5 -48t47.5 -124h-38q0 64 -38.5 101.5t-105.5 37.5q-71 0 -127.5 -43.5t-84.5 -107.5t-28 -132q0 -80 39 -134.5t117 -54.5q70 0 120 39.5t77 107.5z
" />
    <glyph glyph-name="d" unicode="d" 
d="M216 21q53 0 97 31.5t71 80t42 103t15 105.5q0 60 -38.5 106t-102.5 46q-58 0 -106.5 -27.5t-78.5 -71.5t-46.5 -95t-16.5 -101q0 -177 164 -177zM530 714h38l-152 -714h-38l27 115l-2 2q-65 -129 -195 -129q-93 0 -143.5 58t-50.5 144q0 60 18 118.5t52 107.5t89 79.5
t122 30.5q66 0 111.5 -36.5t52.5 -99.5h2z" />
    <glyph glyph-name="e" unicode="e" horiz-adv-x="519" 
d="M468 252h-411q-5 -28 -5 -56q0 -74 44 -124.5t119 -50.5q70 0 125 44.5t69 105.5h38q-23 -83 -84.5 -133t-151.5 -50q-94 0 -145.5 58t-51.5 145q0 146 74.5 240.5t198.5 94.5q88 0 138 -55.5t50 -142.5q0 -32 -7 -76zM63 285h369q5 28 5 43q0 71 -40 118t-117 47
q-86 0 -142 -59.5t-75 -148.5z" />
    <glyph glyph-name="f" unicode="f" horiz-adv-x="241" 
d="M36 514h89l9 40q18 83 36 113q35 54 105 55q31 0 54 -5l-7 -33q-30 5 -40 5q-37 0 -61 -22t-30 -40.5t-16 -61.5q-2 -7 -3 -11l-9 -40h109l-7 -33h-109l-103 -481h-38l102 481h-88z" />
    <glyph glyph-name="g" unicode="g" horiz-adv-x="537" 
d="M-13 -36h38q0 -61 38.5 -94t102.5 -33q52 0 89.5 13.5t60.5 41t36 58t23 74.5l23 102h-2q-62 -107 -181 -107q-94 0 -142 56.5t-48 152.5q0 117 69.5 207.5t183.5 90.5q70 0 120 -40t52 -103h2l29 131h38l-106 -490q-24 -112 -80.5 -166t-172.5 -54q-77 0 -127 42.5
t-46 117.5zM279 493q-97 0 -156.5 -81t-59.5 -181q0 -85 40 -132t120 -47q66 0 115 45t71.5 106.5t22.5 125.5q0 44 -15.5 78t-40 51.5t-49 26t-48.5 8.5z" />
    <glyph glyph-name="h" unicode="h" horiz-adv-x="519" 
d="M-7 0l151 714h38l-66 -308h2q76 120 207 120q61 0 103.5 -38.5t42.5 -103.5q0 -34 -15 -103l-63 -281h-38l63 280q15 71 15 103q0 50 -32 80t-89 30q-61 0 -111.5 -40t-78 -94.5t-40.5 -116.5l-51 -242h-38z" />
    <glyph glyph-name="i" unicode="i" horiz-adv-x="167" 
d="M-7 0l107 514h38l-107 -514h-38zM121 611l21 103h38l-21 -103h-38z" />
    <glyph glyph-name="j" unicode="j" horiz-adv-x="167" 
d="M-14 -38l114 552h38l-115 -555q-1 -4 -3.5 -19.5t-4.5 -23.5t-6.5 -23t-10 -24t-15 -20t-20.5 -17.5t-28 -11t-37 -4.5q-22 0 -41 3l7 34q26 -4 40 -4q17 0 30 7t20.5 15.5t14.5 27t9.5 29t7.5 34.5zM121 611l21 103h38l-21 -103h-38z" />
    <glyph glyph-name="k" unicode="k" horiz-adv-x="463" 
d="M-7 0l153 714h38l-102 -472l2 -2l345 274h57l-261 -205l184 -309h-48l-168 285l-122 -95l-40 -190h-38z" />
    <glyph glyph-name="l" unicode="l" horiz-adv-x="167" 
d="M-7 0l149 714h38l-149 -714h-38z" />
    <glyph glyph-name="m" unicode="m" horiz-adv-x="796" 
d="M-7 0l111 514h38l-23 -107l2 -2q30 54 77 87.5t105 33.5q60 0 93 -34t33 -94h3q25 57 75.5 92.5t111.5 35.5q57 0 98 -33t41 -90q0 -35 -14 -98l-65 -305h-38l65 303q14 63 14 92q0 51 -33 74.5t-82 23.5q-60 0 -116 -64.5t-71 -135.5l-63 -293h-38l63 293q11 49 11 98
q0 48 -27 75t-73 27q-51 0 -96 -40t-71.5 -92t-37.5 -106l-55 -255h-38z" />
    <glyph glyph-name="n" unicode="n" horiz-adv-x="519" 
d="M-7 0l109 514h38l-25 -112h2q74 124 208 124q61 0 103.5 -38.5t42.5 -103.5q0 -34 -15 -103l-63 -281h-38l63 280q15 71 15 103q0 50 -32 80t-89 30q-61 0 -111.5 -40t-78 -94.5t-40.5 -116.5l-51 -242h-38z" />
    <glyph glyph-name="o" unicode="o" horiz-adv-x="537" 
d="M299 493q-75 2 -133 -42t-86 -109t-28 -135q0 -83 41.5 -134.5t125.5 -51.5q74 0 130 48.5t81.5 115.5t25.5 138q0 78 -39.5 123t-117.5 47zM291 526q95 0 149 -54t54 -148q0 -60 -18 -119t-51 -108t-86.5 -79t-118.5 -30q-102 0 -154 58t-52 158q0 80 32 152.5t97 121
t148 48.5z" />
    <glyph glyph-name="p" unicode="p" 
d="M-48 -184l150 698h38l-22 -100h2q26 48 78.5 80t114.5 32q97 0 144 -58t47 -155q0 -79 -30 -152t-92.5 -123t-143.5 -50q-65 0 -111.5 39.5t-64.5 105.5h-2l-70 -317h-38zM240 21q71 0 124.5 48t77.5 113t24 132q0 80 -40.5 129.5t-117.5 49.5q-53 0 -98 -29t-72.5 -74.5
t-42.5 -96t-15 -96.5q0 -66 44.5 -121t115.5 -55z" />
    <glyph glyph-name="q" unicode="q" 
d="M216 21q53 0 97 31.5t71 80t42 103t15 105.5q0 60 -38.5 106t-102.5 46q-58 0 -106.5 -27.5t-78.5 -71.5t-46.5 -95t-16.5 -101q0 -177 164 -177zM525 514l-149 -698h-38l67 299l-2 2q-65 -129 -195 -129q-93 0 -143.5 58t-50.5 144q0 60 18 118.5t52 107.5t89 79.5
t122 30.5q66 0 111.5 -36.5t52.5 -99.5h2l26 124h38z" />
    <glyph glyph-name="r" unicode="r" horiz-adv-x="278" 
d="M-13 0l111 514h38l-28 -123h2q30 61 79 98t115 37q10 0 32 -2l-11 -40q-22 4 -31 4q-163 0 -224 -280l-45 -208h-38z" />
    <glyph glyph-name="s" unicode="s" horiz-adv-x="463" 
d="M-2 175h38q0 -4 -0.5 -12t-0.5 -12q0 -130 174 -130q48 0 93 30.5t45 79.5q0 21 -9.5 39t-19.5 28t-35.5 22t-36 16t-43.5 15t-52.5 20t-42.5 25t-34 38.5t-11 52.5q0 68 54.5 103.5t127.5 35.5q75 0 125.5 -34t50.5 -95q0 -4 -2 -38h-38q2 24 2 33q0 48 -39.5 74.5
t-98.5 26.5q-55 0 -99.5 -25t-44.5 -77q0 -19 9 -35.5t19.5 -26.5t34.5 -21t36.5 -16t42.5 -15q33 -11 53.5 -20.5t43.5 -25.5t34 -38t11 -51q0 -72 -57 -113t-134 -41q-89 0 -143 36.5t-54 117.5q0 21 1 33z" />
    <glyph glyph-name="t" unicode="t" horiz-adv-x="259" 
d="M19 481l8 33h95l35 161h38l-35 -161h110l-8 -33h-108l-78 -358q-8 -28 -8 -47q0 -43 58 -43q28 0 57 3l-7 -33q-5 0 -27 -1.5t-35 -1.5q-84 0 -84 77q0 9 8 49l78 355h-97z" />
    <glyph glyph-name="u" unicode="u" horiz-adv-x="519" 
d="M487 514l-109 -514h-38l24 108l-2 2q-36 -62 -82 -92t-119 -30q-61 0 -103.5 38.5t-42.5 103.5q0 34 15 103l63 281h38l-63 -280q-15 -71 -15 -103q0 -50 32 -80t89 -30q58 0 107 40t76.5 94.5t40.5 116.5l51 242h38z" />
    <glyph glyph-name="v" unicode="v" horiz-adv-x="426" 
d="M117 0l-90 514h42l77 -470h2l263 470h45l-293 -514h-46z" />
    <glyph glyph-name="w" unicode="w" horiz-adv-x="704" 
d="M86 0l-59 514h38l51 -470h2l238 470h51l47 -470h2l242 470h44l-274 -514h-46l-46 466h-2l-241 -466h-47z" />
    <glyph glyph-name="x" unicode="x" horiz-adv-x="426" 
d="M93 514l112 -218l198 218h50l-228 -249l142 -265h-46l-127 237l-218 -237h-51l250 270l-129 244h47z" />
    <glyph glyph-name="y" unicode="y" horiz-adv-x="426" 
d="M-67 -181l8 33q20 -3 36 -3q34 0 56 18t43 53l50 80l-101 514h44l86 -463l262 463h45l-349 -604q-29 -50 -58 -72t-81 -22q-11 0 -41 3z" />
    <glyph glyph-name="z" unicode="z" horiz-adv-x="426" 
d="M-51 0l7 38l430 438h-328l9 38h381l-10 -38l-433 -438h349l-8 -38h-397z" />
    <glyph glyph-name="braceleft" unicode="{" horiz-adv-x="333" 
d="M390 731l-7 -33h-48q-30 0 -45.5 -22.5t-27.5 -80.5l-33 -157q-5 -24 -12 -45t-14 -35.5t-15.5 -27.5t-15 -20.5t-15.5 -15t-13.5 -10.5t-11.5 -6.5t-8 -4.5l8 -5q7 -6 11.5 -11.5t11 -15.5t10 -26t3.5 -36q0 -32 -8 -70l-33 -157q-9 -40 -9 -63q0 -40 40 -40h49l-7 -33
h-50q-70 0 -70 65q0 21 6 53l33 159q11 55 11 86q0 75 -49 75l8 38q75 4 106 163l32 158q13 65 40.5 91.5t72.5 26.5h50z" />
    <glyph glyph-name="bar" unicode="|" horiz-adv-x="222" 
d="M92 -214v1000h38v-1000h-38z" />
    <glyph glyph-name="braceright" unicode="}" horiz-adv-x="333" 
d="M-77 -184l7 33h48q30 0 45.5 22.5t27.5 80.5l33 157q5 21 10.5 40t12.5 33.5t13 26t14 20.5t13.5 15.5t13.5 12t11.5 7.5t9.5 6l7 3q-1 1 -8 6t-12 11t-11 16t-9.5 26t-3.5 36q0 32 8 70l33 157q9 40 9 63q0 40 -40 40h-49l7 33h50q70 0 70 -65q0 -21 -6 -53l-33 -159
q-11 -55 -11 -86q0 -75 49 -76l-8 -38q-75 -3 -106 -162l-32 -158q-13 -65 -40.5 -91.5t-72.5 -26.5h-50z" />
    <glyph glyph-name="asciitilde" unicode="~" horiz-adv-x="600" 
d="M500 312l28 -28q-55 -85 -121 -85q-40 0 -114 38q-60 30 -92 30q-66 0 -99 -75l-29 30q26 43 52.5 63t69.5 20q39 0 111 -32q6 -3 21.5 -11t25 -12.5t25 -8.5t30.5 -4q27 0 52 23t40 52z" />
    <glyph glyph-name="exclamdown" unicode="&#xa1;" horiz-adv-x="204" 
d="M141 432h-50l23 103h50zM88 347h29l-59 -311l-47 -220h-42l47 220z" />
    <glyph glyph-name="cent" unicode="&#xa2;" 
d="M201 24l100 472q-101 -11 -162.5 -98.5t-61.5 -194.5q0 -67 31.5 -117.5t92.5 -61.5zM499 358h-38q0 60 -35.5 96.5t-96.5 38.5l-101 -471q7 -1 23 -1q51 0 100.5 35t78.5 108h42q-74 -176 -224 -176q-18 0 -27 1l-22 -105h-27l22 108q-79 12 -117 69t-38 147
q0 122 75 216.5t194 101.5l19 88h27l-18 -88q74 -4 117.5 -46.5t45.5 -121.5z" />
    <glyph glyph-name="sterling" unicode="&#xa3;" 
d="M39 330l5 33h81q-32 89 -32 154q0 100 70.5 157t168.5 57q88 0 145 -50t59 -144q0 -29 -2 -44h-38q0 7 1 20.5t1 22.5q-5 157 -179 157q-81 0 -134.5 -50.5t-53.5 -131.5q0 -65 32 -148h163l-7 -33h-148q10 -48 10 -77q0 -105 -128 -210l2 -2q48 24 85 24q32 0 98 -22
q70 -22 96 -22q75 0 131 74l19 -32q-69 -80 -150 -80q-32 0 -108 23q-58 21 -102 21q-59 0 -116 -44l-17 38q32 29 50.5 47t46 50t41.5 63t14 61q0 52 -10 88h-94z" />
    <glyph glyph-name="currency" unicode="&#xa4;" 
d="M519 131l-27 -27l-53 54q-70 -61 -162 -61t-160 61l-55 -56l-27 27l56 55q-59 70 -61 161q0 93 61 161l-57 56l27 27l56 -56q69 58 160 60q92 0 162 -61l54 55l27 -27l-55 -54q61 -68 61 -161t-61 -160zM278 135q83 0 143.5 61.5t60.5 148.5t-60.5 148.5t-143.5 61.5
t-143.5 -61.5t-60.5 -148.5t60.5 -148.5t143.5 -61.5z" />
    <glyph glyph-name="yen" unicode="&#xa5;" 
d="M93 198l7 33h129l17 78h-140l7 33h122l-135 372h46l127 -368l283 368h50l-288 -372h120l-7 -33h-138l-5 -6l-15 -72h151l-7 -33h-152l-43 -198h-43l43 198h-129z" />
    <glyph glyph-name="brokenbar" unicode="&#xa6;" horiz-adv-x="222" 
d="M92 -89v250h38v-250h-38zM92 411v250h38v-250h-38z" />
    <glyph glyph-name="section" unicode="&#xa7;" 
d="M97 349q0 -56 80 -136q42 -42 132 -128q22 3 45 11.5t47.5 36.5t24.5 69q0 63 -71 130q-83 77 -142 137q-22 -1 -46.5 -11t-47 -38.5t-22.5 -70.5zM485 538h-38q1 9 1 35q0 125 -115 125q-55 0 -90 -30t-35 -91q0 -45 39 -91q19 -18 66 -62t70 -67q81 -81 81 -155
q2 -59 -37 -97.5t-98 -47.5q32 -39 32 -85q0 -78 -49 -117t-120 -39q-76 0 -123 41t-47 112q0 27 1 41h38q0 -1 -0.5 -15t-0.5 -26q0 -46 31 -83t103 -37q51 0 90 29t39 89q0 58 -58 110q-7 6 -29.5 27.5t-53 52.5t-43.5 43q-26 27 -40 44t-27 45t-13 58q0 58 39.5 100
t97.5 50q-26 37 -26 83q0 75 46 113t115 38q73 0 114 -37.5t41 -114.5q0 -26 -1 -41z" />
    <glyph glyph-name="dieresis" unicode="&#xa8;" horiz-adv-x="167" 
d="M218 594l19 103h44l-19 -103h-44zM59 594l19 103h44l-19 -103h-44z" />
    <glyph glyph-name="copyright" unicode="&#xa9;" horiz-adv-x="800" 
d="M401 698q-144 0 -240.5 -98t-96.5 -242q0 -143 97 -242.5t240 -99.5q142 0 238.5 99.5t96.5 242.5q0 144 -96 242t-239 98zM599 438h-38q-11 57 -52.5 89.5t-99.5 32.5q-87 0 -136.5 -56t-49.5 -145q0 -87 51.5 -146.5t136.5 -59.5q59 0 97 34.5t53 93.5h38
q-9 -72 -62 -116.5t-126 -44.5q-101 0 -163.5 67.5t-62.5 170.5q0 104 60.5 169.5t162.5 65.5q75 0 128.5 -41t62.5 -114zM26 357q0 155 109.5 264.5t264.5 109.5t264.5 -109.5t109.5 -264.5t-109.5 -264.5t-264.5 -109.5t-264.5 109.5t-109.5 264.5z" />
    <glyph glyph-name="ordfeminine" unicode="&#xaa;" horiz-adv-x="300" 
d="M263 513l11 41l-2 2q-20 -26 -100 -26q-125 0 -125 -73q0 -33 23.5 -48.5t59.5 -15.5q101 0 133 120zM95 601h-32q24 101 150 101q22 0 43 -5t41 -23t20 -46q0 -9 -3 -26.5t-7 -32.5l-8 -30t-4 -16q-3 -12 -8.5 -35t-9.5 -39.5t-4 -24.5q0 -22 18 -22q11 0 22 3l-4 -27
q-10 -3 -29 -3q-15 0 -23.5 10t-8.5 22q0 9 2 23l-2 2q-16 -31 -51 -48.5t-71 -17.5q-111 0 -111 86q0 33 12 54.5t34.5 31.5t45.5 14t55 5q71 2 97 13.5t26 43.5q0 61 -79 61q-89 0 -111 -74z" />
    <glyph glyph-name="guillemotleft" unicode="&#xab;" horiz-adv-x="389" 
d="M325 423l-11 -51l-113 -105l70 -97l-11 -49l-91 132l9 38zM197 423l-11 -51l-113 -105l70 -97l-11 -49l-91 132l9 38z" />
    <glyph glyph-name="logicalnot" unicode="&#xac;" horiz-adv-x="600" 
d="M514 108v223h-466v38h504v-261h-38z" />
    <glyph glyph-name="registered" unicode="&#xae;" horiz-adv-x="800" 
d="M264 136v442h166q144 0 144 -122q0 -51 -31.5 -80t-82.5 -37l132 -203h-42l-133 204h-115v-204h-38zM302 545v-172h94q30 0 51 2.5t43.5 10.5t34 26t11.5 45q0 47 -32.5 67.5t-79.5 20.5h-122zM401 698q-144 0 -240.5 -98t-96.5 -242q0 -143 97 -242.5t240 -99.5
q142 0 238.5 99.5t96.5 242.5q0 144 -96 242t-239 98zM26 357q0 155 109.5 264.5t264.5 109.5t264.5 -109.5t109.5 -264.5t-109.5 -264.5t-264.5 -109.5t-264.5 109.5t-109.5 264.5z" />
    <glyph glyph-name="macron" unicode="&#xaf;" horiz-adv-x="167" 
d="M282 629h-240l6 33h240z" />
    <glyph glyph-name="degree" unicode="&#xb0;" horiz-adv-x="400" 
d="M200 669q-45 0 -75 -32.5t-30 -77.5t30 -77.5t75 -32.5t75 32.5t30 77.5t-30 77.5t-75 32.5zM200 416q-60 0 -101.5 41.5t-41.5 101.5t41.5 101.5t101.5 41.5t101.5 -41.5t41.5 -101.5t-41.5 -101.5t-101.5 -41.5z" />
    <glyph glyph-name="plusminus" unicode="&#xb1;" horiz-adv-x="600" 
d="M281 315v189h38v-189h233v-38h-233v-189h-38v189h-233v38h233zM48 0v38h504v-38h-504z" />
    <glyph glyph-name="twosuperior" unicode="&#xb2;" horiz-adv-x="333" 
d="M309 302l-6 -27h-293q3 56 41.5 92.5t104.5 69.5q2 1 29 14t34.5 17.5t30.5 17.5t32.5 22.5t23 23.5t19 28.5t5.5 30.5q0 38 -27 61t-71 23q-57 0 -91 -33.5t-37 -86.5h-32q4 66 45.5 106.5t110.5 40.5q60 0 97 -29t37 -81q0 -54 -37.5 -88t-108.5 -69q-8 -4 -31.5 -15.5
t-33 -17t-28.5 -16t-28.5 -18t-22 -18.5t-19.5 -23t-11 -25h267z" />
    <glyph glyph-name="threesuperior" unicode="&#xb3;" horiz-adv-x="333" 
d="M98 567h-32q9 63 51 99t114 36q50 0 87 -27.5t37 -77.5q0 -43 -30 -71.5t-76 -31.5v-2q35 -5 55.5 -30t20.5 -58q0 -65 -46 -101t-118 -37q-147 2 -147 127q0 8 2 22h32q-2 -14 -2 -22q0 -48 30 -74t85 -26q56 0 94 29t38 77q0 49 -32 64.5t-98 15.5l4 27q156 0 156 87
q0 40 -28.5 61t-73.5 21q-100 0 -123 -108z" />
    <glyph glyph-name="acute" unicode="&#xb4;" horiz-adv-x="167" 
d="M88 591l99 140h48l-110 -140h-37z" />
    <glyph glyph-name="mu" unicode="&#xb5;" horiz-adv-x="519" 
d="M487 514l-109 -514h-38l24 108l-2 2q-36 -62 -82 -92t-119 -30q-99 4 -128 67h-2l-53 -239h-38l154 698h38l-63 -280q-15 -71 -15 -103q0 -50 32 -80t88 -30q58 0 107 40t76.5 94.5t40.5 116.5l51 242h38z" />
    <glyph glyph-name="paragraph" unicode="&#xb6;" horiz-adv-x="600" 
d="M186 -146l98 474q-75 0 -123 43.5t-48 108.5q0 108 78.5 171t189.5 63h217l-178 -860h-44l171 827h-146l-171 -827h-44z" />
    <glyph glyph-name="periodcentered" unicode="&#xb7;" horiz-adv-x="278" 
d="M77 317q0 21 16.5 37.5t37.5 16.5t38 -16.5t17 -37.5q0 -22 -16.5 -38.5t-38.5 -16.5q-21 0 -37.5 17t-16.5 38z" />
    <glyph glyph-name="cedilla" unicode="&#xb8;" horiz-adv-x="167" 
d="M-63 -171l13 25q46 -23 81 -23q26 0 44 14t18 38q0 17 -16 29t-37 12q-22 0 -48 -13l-14 15l72 80h24l-51 -57l2 -2q9 4 27 4q32 0 55.5 -19t23.5 -50q0 -36 -32.5 -57t-69.5 -21q-40 0 -92 25z" />
    <glyph glyph-name="onesuperior" unicode="&#xb9;" horiz-adv-x="333" 
d="M92 590l5 29q68 9 140 74h30l-97 -418h-34l86 368l-2 2q-50 -42 -128 -55z" />
    <glyph glyph-name="ordmasculine" unicode="&#xba;" horiz-adv-x="322" 
d="M219 675q-71 1 -114.5 -52t-43.5 -119q0 -49 26.5 -80t79.5 -31q70 0 111 56.5t41 124.5q0 46 -25.5 73t-74.5 28zM214 702q65 0 101 -33.5t36 -94.5q0 -83 -48 -145.5t-135 -62.5q-139 0 -139 136q0 80 50.5 140t134.5 60z" />
    <glyph glyph-name="guillemotright" unicode="&#xbb;" horiz-adv-x="389" 
d="M33 121l11 51l113 105l-70 97l11 49l91 -132l-9 -38zM161 121l11 51l113 105l-70 97l11 49l91 -132l-9 -38z" />
    <glyph glyph-name="onequarter" unicode="&#xbc;" horiz-adv-x="834" 
d="M115 -24l465 738h40l-465 -738h-40zM92 590l5 29q68 9 140 74h30l-97 -418h-34l86 368l-2 2q-50 -42 -128 -55zM729 414l-65 -283h73l-7 -27h-72l-24 -104h-33l24 104h-221l6 25l283 285h36zM454 131h176l53 229h-3z" />
    <glyph glyph-name="onehalf" unicode="&#xbd;" horiz-adv-x="834" 
d="M115 -24l465 738h40l-465 -738h-40zM710 27l-6 -27h-293q3 56 41.5 92.5t104.5 69.5q2 1 29 14t34.5 17.5t30.5 17.5t32.5 22.5t23 23.5t19 28.5t5.5 30.5q0 38 -27 61t-71 23q-57 0 -91 -33.5t-37 -86.5h-32q4 66 45.5 106.5t110.5 40.5q60 0 97 -29t37 -81
q0 -54 -37.5 -88t-108.5 -69q-8 -4 -31.5 -15.5t-33 -17t-28.5 -16t-28.5 -18t-22 -18.5t-19.5 -23t-11 -25h267zM92 590l5 29q68 9 140 74h30l-97 -418h-34l86 368l-2 2q-50 -42 -128 -55z" />
    <glyph glyph-name="threequarters" unicode="&#xbe;" horiz-adv-x="834" 
d="M145 567h-32q9 63 51 99t114 36q50 0 87 -27.5t37 -77.5q0 -43 -30 -71.5t-76 -31.5v-2q35 -5 55.5 -30t20.5 -58q0 -65 -46 -101t-118 -37q-147 2 -147 127q0 8 2 22h32q-2 -14 -2 -22q0 -48 30 -74t85 -26q56 0 94 29t38 77q0 49 -32 64.5t-98 15.5l4 27q156 0 156 87
q0 40 -28.5 61t-73.5 21q-100 0 -123 -108zM201 -24l465 738h40l-465 -738h-40zM752 414l-65 -283h73l-7 -27h-72l-24 -104h-33l24 104h-221l6 25l283 285h36zM477 131h176l53 229h-3z" />
    <glyph glyph-name="questiondown" unicode="&#xbf;" horiz-adv-x="519" 
d="M247 349h44q-5 -54 -28 -95t-46.5 -60t-61.5 -43.5t-53 -37.5q-75 -65 -75 -136q0 -65 40.5 -100t107.5 -35q156 0 187 199h44q-11 -102 -70 -169.5t-161 -67.5q-79 0 -135.5 43t-56.5 120q0 65 28.5 108.5t97.5 88.5q53 35 73.5 52t37.5 48.5t27 84.5zM260 432l23 103
h50l-23 -103h-50z" />
    <glyph glyph-name="Agrave" unicode="&#xc0;" horiz-adv-x="611" 
d="M380 670l-243 -403h315zM-74 0l439 714h46l133 -714h-44l-41 229h-345l-138 -229h-50zM314 904h48l99 -140h-37z" />
    <glyph glyph-name="Aacute" unicode="&#xc1;" horiz-adv-x="611" 
d="M380 670l-243 -403h315zM-74 0l439 714h46l133 -714h-44l-41 229h-345l-138 -229h-50zM323 764l99 140h48l-110 -140h-37z" />
    <glyph glyph-name="Acircumflex" unicode="&#xc2;" horiz-adv-x="611" 
d="M380 670l-243 -403h315zM-74 0l439 714h46l133 -714h-44l-41 229h-345l-138 -229h-50zM409 879l-110 -115h-44l133 140h46l88 -140h-42z" />
    <glyph glyph-name="Atilde" unicode="&#xc3;" horiz-adv-x="611" 
d="M380 670l-243 -403h315zM-74 0l439 714h46l133 -714h-44l-41 229h-345l-138 -229h-50zM521 863h29q-7 -36 -29 -62t-55 -26q-28 0 -71 29q-46 28 -60 28q-19 0 -33 -17t-18 -38h-29q6 34 28 61t54 27q25 0 69 -28q41 -29 65 -29q17 0 30 17.5t20 37.5z" />
    <glyph glyph-name="Adieresis" unicode="&#xc4;" horiz-adv-x="611" 
d="M380 670l-243 -403h315zM-74 0l439 714h46l133 -714h-44l-41 229h-345l-138 -229h-50zM453 767l19 103h44l-19 -103h-44zM294 767l19 103h44l-19 -103h-44z" />
    <glyph glyph-name="Aring" unicode="&#xc5;" horiz-adv-x="611" 
d="M380 670l-243 -403h315zM-74 0l439 714h46l133 -714h-44l-41 229h-345l-138 -229h-50zM316 828q0 41 29 70t70 29t70 -29t29 -70t-29 -70t-70 -29t-70 29t-29 70zM343 828q0 -30 21 -51t51 -21t51 21t21 51t-21 51t-51 21t-51 -21t-21 -51z" />
    <glyph glyph-name="AE" unicode="&#xc6;" horiz-adv-x="870" 
d="M-35 0h-52l544 714h472l-8 -38h-366l-61 -286h341l-8 -38h-341l-66 -314h381l-10 -38h-423l54 254h-264zM477 676l-292 -384h244l82 384h-34z" />
    <glyph glyph-name="Ccedilla" unicode="&#xc7;" horiz-adv-x="704" 
d="M691 494h-44q-1 94 -63 146.5t-157 52.5q-103 0 -183.5 -61.5t-120.5 -154t-40 -195.5q0 -127 67 -194t179 -67q98 0 177.5 65t103.5 162h44q-23 -114 -118 -189.5t-211 -75.5h-3l-30 -34l2 -2q9 4 27 4q32 0 55.5 -19t23.5 -50q0 -36 -32 -57t-70 -21q-40 0 -92 25
l13 25q46 -23 81 -23q26 0 44 14t18 38q0 17 -16 29t-37 12q-22 0 -48 -13l-14 15l53 59q-112 7 -186.5 80t-74.5 220q0 62 15.5 124.5t48 120.5t77.5 102.5t109 71.5t137 27q123 0 195.5 -65.5t69.5 -171.5z" />
    <glyph glyph-name="Egrave" unicode="&#xc8;" 
d="M-1 0l150 714h466l-9 -38h-421l-60 -286h392l-7 -38h-393l-66 -314h434l-8 -38h-478zM301 904h48l99 -140h-37z" />
    <glyph glyph-name="Eacute" unicode="&#xc9;" 
d="M-1 0l150 714h466l-9 -38h-421l-60 -286h392l-7 -38h-393l-66 -314h434l-8 -38h-478zM318 764l99 140h48l-110 -140h-37z" />
    <glyph glyph-name="Ecircumflex" unicode="&#xca;" 
d="M-1 0l150 714h466l-9 -38h-421l-60 -286h392l-7 -38h-393l-66 -314h434l-8 -38h-478zM396 879l-110 -115h-44l133 140h46l88 -140h-42z" />
    <glyph glyph-name="Edieresis" unicode="&#xcb;" 
d="M-1 0l150 714h466l-9 -38h-421l-60 -286h392l-7 -38h-393l-66 -314h434l-8 -38h-478zM440 767l19 103h44l-19 -103h-44zM281 767l19 103h44l-19 -103h-44z" />
    <glyph glyph-name="Igrave" unicode="&#xcc;" horiz-adv-x="185" 
d="M-1 0l151 714h44l-151 -714h-44zM88 904h48l99 -140h-37z" />
    <glyph glyph-name="Iacute" unicode="&#xcd;" horiz-adv-x="185" 
d="M-1 0l151 714h44l-151 -714h-44zM97 764l99 140h48l-110 -140h-37z" />
    <glyph glyph-name="Icircumflex" unicode="&#xce;" horiz-adv-x="185" 
d="M-1 0l151 714h44l-151 -714h-44zM193 879l-110 -115h-44l133 140h46l88 -140h-42z" />
    <glyph glyph-name="Idieresis" unicode="&#xcf;" horiz-adv-x="185" 
d="M-1 0l151 714h44l-151 -714h-44zM227 767l19 103h44l-19 -103h-44zM68 767l19 103h44l-19 -103h-44z" />
    <glyph glyph-name="Eth" unicode="&#xd0;" horiz-adv-x="685" 
d="M83 396l67 318h231q140 0 202 -72.5t62 -215.5q0 -78 -25.5 -153t-72.5 -136.5t-121.5 -99t-163.5 -37.5h-263l77 363h-78l8 33h77zM186 676l-59 -280h256l-8 -33h-255l-69 -325h206q71 0 130 24.5t98 64t66 91t38.5 104t11.5 104.5q0 127 -53 188.5t-177 61.5h-185z" />
    <glyph glyph-name="Ntilde" unicode="&#xd1;" horiz-adv-x="685" 
d="M-1 0l153 714h52l313 -670h2l139 670h44l-155 -714h-51l-315 670h-2l-136 -670h-44zM545 863h29q-7 -36 -29 -62t-55 -26q-28 0 -71 29q-46 28 -60 28q-19 0 -33 -17t-18 -38h-29q6 34 28 61t54 27q25 0 69 -28q41 -29 65 -29q17 0 30 17.5t20 37.5z" />
    <glyph glyph-name="Ograve" unicode="&#xd2;" horiz-adv-x="741" 
d="M83 287q0 -121 64.5 -193.5t180.5 -72.5q101 0 180.5 61.5t119.5 153t40 190.5q0 119 -62.5 193t-180.5 74q-151 0 -246.5 -119.5t-95.5 -286.5zM39 288q0 114 46 214.5t135 164.5t201 64q138 0 214.5 -80.5t76.5 -219.5q0 -81 -26.5 -160.5t-74 -143.5t-120.5 -104
t-158 -40q-139 0 -216.5 82.5t-77.5 222.5zM366 904h48l99 -140h-37z" />
    <glyph glyph-name="Oacute" unicode="&#xd3;" horiz-adv-x="741" 
d="M83 287q0 -121 64.5 -193.5t180.5 -72.5q101 0 180.5 61.5t119.5 153t40 190.5q0 119 -62.5 193t-180.5 74q-151 0 -246.5 -119.5t-95.5 -286.5zM39 288q0 114 46 214.5t135 164.5t201 64q138 0 214.5 -80.5t76.5 -219.5q0 -81 -26.5 -160.5t-74 -143.5t-120.5 -104
t-158 -40q-139 0 -216.5 82.5t-77.5 222.5zM375 764l99 140h48l-110 -140h-37z" />
    <glyph glyph-name="Ocircumflex" unicode="&#xd4;" horiz-adv-x="741" 
d="M83 287q0 -121 64.5 -193.5t180.5 -72.5q101 0 180.5 61.5t119.5 153t40 190.5q0 119 -62.5 193t-180.5 74q-151 0 -246.5 -119.5t-95.5 -286.5zM39 288q0 114 46 214.5t135 164.5t201 64q138 0 214.5 -80.5t76.5 -219.5q0 -81 -26.5 -160.5t-74 -143.5t-120.5 -104
t-158 -40q-139 0 -216.5 82.5t-77.5 222.5zM461 879l-110 -115h-44l133 140h46l88 -140h-42z" />
    <glyph glyph-name="Otilde" unicode="&#xd5;" horiz-adv-x="741" 
d="M83 287q0 -121 64.5 -193.5t180.5 -72.5q101 0 180.5 61.5t119.5 153t40 190.5q0 119 -62.5 193t-180.5 74q-151 0 -246.5 -119.5t-95.5 -286.5zM39 288q0 114 46 214.5t135 164.5t201 64q138 0 214.5 -80.5t76.5 -219.5q0 -81 -26.5 -160.5t-74 -143.5t-120.5 -104
t-158 -40q-139 0 -216.5 82.5t-77.5 222.5zM573 863h29q-7 -36 -29 -62t-55 -26q-28 0 -71 29q-46 28 -60 28q-19 0 -33 -17t-18 -38h-29q6 34 28 61t54 27q25 0 69 -28q41 -29 65 -29q17 0 30 17.5t20 37.5z" />
    <glyph glyph-name="Odieresis" unicode="&#xd6;" horiz-adv-x="741" 
d="M83 287q0 -121 64.5 -193.5t180.5 -72.5q101 0 180.5 61.5t119.5 153t40 190.5q0 119 -62.5 193t-180.5 74q-151 0 -246.5 -119.5t-95.5 -286.5zM39 288q0 114 46 214.5t135 164.5t201 64q138 0 214.5 -80.5t76.5 -219.5q0 -81 -26.5 -160.5t-74 -143.5t-120.5 -104
t-158 -40q-139 0 -216.5 82.5t-77.5 222.5zM505 767l19 103h44l-19 -103h-44zM346 767l19 103h44l-19 -103h-44z" />
    <glyph glyph-name="multiply" unicode="&#xd7;" horiz-adv-x="600" 
d="M79 58l194 194l-194 195l26 27l195 -195l194 195l27 -27l-194 -195l194 -194l-27 -27l-194 195l-195 -195z" />
    <glyph glyph-name="Oslash" unicode="&#xd8;" horiz-adv-x="741" 
d="M616 605l-462 -517q63 -65 174 -67q101 0 180.5 61.5t119.5 153t40 190.5q0 110 -52 179zM137 107l462 518q-63 68 -174 68q-151 0 -246.5 -119.5t-95.5 -286.5q0 -118 54 -180zM31 -13l78 88q-70 72 -70 213q0 114 46 214.5t135 164.5t201 64q131 0 206 -73l70 78
l21 -16l-73 -81q67 -79 67 -208q0 -81 -26.5 -160.5t-74 -143.5t-120.5 -104t-158 -40q-130 0 -207 74l-76 -85z" />
    <glyph glyph-name="Ugrave" unicode="&#xd9;" horiz-adv-x="667" 
d="M684 714l-100 -469q-30 -136 -100.5 -199t-206.5 -63q-105 0 -173 53t-68 156q0 32 14 100l90 422h44l-90 -422q-14 -70 -14 -107q0 -81 59.5 -122.5t144.5 -41.5q113 0 173 58.5t83 166.5l100 468h44zM338 904h48l99 -140h-37z" />
    <glyph glyph-name="Uacute" unicode="&#xda;" horiz-adv-x="667" 
d="M684 714l-100 -469q-30 -136 -100.5 -199t-206.5 -63q-105 0 -173 53t-68 156q0 32 14 100l90 422h44l-90 -422q-14 -70 -14 -107q0 -81 59.5 -122.5t144.5 -41.5q113 0 173 58.5t83 166.5l100 468h44zM347 764l99 140h48l-110 -140h-37z" />
    <glyph glyph-name="Ucircumflex" unicode="&#xdb;" horiz-adv-x="667" 
d="M684 714l-100 -469q-30 -136 -100.5 -199t-206.5 -63q-105 0 -173 53t-68 156q0 32 14 100l90 422h44l-90 -422q-14 -70 -14 -107q0 -81 59.5 -122.5t144.5 -41.5q113 0 173 58.5t83 166.5l100 468h44zM433 879l-110 -115h-44l133 140h46l88 -140h-42z" />
    <glyph glyph-name="Udieresis" unicode="&#xdc;" horiz-adv-x="667" 
d="M684 714l-100 -469q-30 -136 -100.5 -199t-206.5 -63q-105 0 -173 53t-68 156q0 32 14 100l90 422h44l-90 -422q-14 -70 -14 -107q0 -81 59.5 -122.5t144.5 -41.5q113 0 173 58.5t83 166.5l100 468h44zM477 767l19 103h44l-19 -103h-44zM318 767l19 103h44l-19 -103h-44z
" />
    <glyph glyph-name="Yacute" unicode="&#xdd;" 
d="M190 0l65 300l-191 414h44l174 -378l322 378h55l-362 -421l-63 -293h-44zM283 764l99 140h48l-110 -140h-37z" />
    <glyph glyph-name="Thorn" unicode="&#xde;" horiz-adv-x="593" 
d="M162 556l-69 -320h250q88 0 145 49t57 137q0 37 -12 62.5t-29 39.5t-47.5 21.5t-55.5 9t-65 1.5h-174zM85 198l-42 -198h-44l153 714h44l-26 -120h178q56 0 95.5 -6.5t75 -24t53 -52.5t17.5 -89q0 -112 -73 -168t-188 -56h-243z" />
    <glyph glyph-name="germandbls" unicode="&#xdf;" horiz-adv-x="500" 
d="M220 379l9 33q89 0 150 40.5t61 119.5q0 59 -37.5 90t-97.5 31q-40 0 -70 -15.5t-49 -43.5t-30 -58t-19 -69l-106 -507h-38l107 511q22 105 69 160t145 55q75 0 119.5 -40.5t44.5 -114.5q0 -68 -44 -117.5t-112 -59.5v-2q58 -10 90 -49.5t32 -99.5q0 -108 -71 -181.5
t-177 -73.5q-33 0 -56 5l8 33q28 -5 50 -5q88 0 148 64t60 153q0 141 -186 141z" />
    <glyph glyph-name="agrave" unicode="&#xe0;" horiz-adv-x="500" 
d="M362 220l18 70h-2q-26 -26 -160 -38q-43 -1 -72 -5t-60 -16t-47 -38.5t-16 -66.5q0 -54 37 -79.5t94 -25.5q156 0 208 199zM97 366h-39q38 160 221 160q23 0 47 -5t51 -17t44 -38t17 -62q0 -40 -34 -176q-3 -13 -13.5 -56t-15.5 -69t-5 -39q0 -33 28 -33q12 0 34 6
l-6 -34q-19 -5 -44 -5q-24 0 -37 16.5t-13 36.5q0 6 3.5 22.5t4.5 20.5h-2q-29 -52 -83.5 -79t-110.5 -27q-71 0 -115 34t-44 104q0 47 18 79.5t52 49t70.5 23t85.5 7.5q109 4 149 25t40 78q0 105 -129 105q-140 0 -174 -127zM219 731h48l99 -140h-37z" />
    <glyph glyph-name="aacute" unicode="&#xe1;" horiz-adv-x="500" 
d="M362 220l18 70h-2q-26 -26 -160 -38q-43 -1 -72 -5t-60 -16t-47 -38.5t-16 -66.5q0 -54 37 -79.5t94 -25.5q156 0 208 199zM97 366h-39q38 160 221 160q23 0 47 -5t51 -17t44 -38t17 -62q0 -40 -34 -176q-3 -13 -13.5 -56t-15.5 -69t-5 -39q0 -33 28 -33q12 0 34 6
l-6 -34q-19 -5 -44 -5q-24 0 -37 16.5t-13 36.5q0 6 3.5 22.5t4.5 20.5h-2q-29 -52 -83.5 -79t-110.5 -27q-71 0 -115 34t-44 104q0 47 18 79.5t52 49t70.5 23t85.5 7.5q109 4 149 25t40 78q0 105 -129 105q-140 0 -174 -127zM228 591l99 140h48l-110 -140h-37z" />
    <glyph glyph-name="acircumflex" unicode="&#xe2;" horiz-adv-x="500" 
d="M362 220l18 70h-2q-26 -26 -160 -38q-43 -1 -72 -5t-60 -16t-47 -38.5t-16 -66.5q0 -54 37 -79.5t94 -25.5q156 0 208 199zM97 366h-39q38 160 221 160q23 0 47 -5t51 -17t44 -38t17 -62q0 -40 -34 -176q-3 -13 -13.5 -56t-15.5 -69t-5 -39q0 -33 28 -33q12 0 34 6
l-6 -34q-19 -5 -44 -5q-24 0 -37 16.5t-13 36.5q0 6 3.5 22.5t4.5 20.5h-2q-29 -52 -83.5 -79t-110.5 -27q-71 0 -115 34t-44 104q0 47 18 79.5t52 49t70.5 23t85.5 7.5q109 4 149 25t40 78q0 105 -129 105q-140 0 -174 -127zM314 706l-110 -115h-44l133 140h46l88 -140h-42
z" />
    <glyph glyph-name="atilde" unicode="&#xe3;" horiz-adv-x="500" 
d="M362 220l18 70h-2q-26 -26 -160 -38q-43 -1 -72 -5t-60 -16t-47 -38.5t-16 -66.5q0 -54 37 -79.5t94 -25.5q156 0 208 199zM97 366h-39q38 160 221 160q23 0 47 -5t51 -17t44 -38t17 -62q0 -40 -34 -176q-3 -13 -13.5 -56t-15.5 -69t-5 -39q0 -33 28 -33q12 0 34 6
l-6 -34q-19 -5 -44 -5q-24 0 -37 16.5t-13 36.5q0 6 3.5 22.5t4.5 20.5h-2q-29 -52 -83.5 -79t-110.5 -27q-71 0 -115 34t-44 104q0 47 18 79.5t52 49t70.5 23t85.5 7.5q109 4 149 25t40 78q0 105 -129 105q-140 0 -174 -127zM426 690h29q-7 -36 -29 -62t-55 -26
q-28 0 -71 29q-46 28 -60 28q-19 0 -33 -17t-18 -38h-29q6 34 28 61t54 27q25 0 69 -28q41 -29 65 -29q17 0 30 17.5t20 37.5z" />
    <glyph glyph-name="adieresis" unicode="&#xe4;" horiz-adv-x="500" 
d="M362 220l18 70h-2q-26 -26 -160 -38q-43 -1 -72 -5t-60 -16t-47 -38.5t-16 -66.5q0 -54 37 -79.5t94 -25.5q156 0 208 199zM97 366h-39q38 160 221 160q23 0 47 -5t51 -17t44 -38t17 -62q0 -40 -34 -176q-3 -13 -13.5 -56t-15.5 -69t-5 -39q0 -33 28 -33q12 0 34 6
l-6 -34q-19 -5 -44 -5q-24 0 -37 16.5t-13 36.5q0 6 3.5 22.5t4.5 20.5h-2q-29 -52 -83.5 -79t-110.5 -27q-71 0 -115 34t-44 104q0 47 18 79.5t52 49t70.5 23t85.5 7.5q109 4 149 25t40 78q0 105 -129 105q-140 0 -174 -127zM358 594l19 103h44l-19 -103h-44zM199 594
l19 103h44l-19 -103h-44z" />
    <glyph glyph-name="aring" unicode="&#xe5;" horiz-adv-x="500" 
d="M362 220l18 70h-2q-26 -26 -160 -38q-43 -1 -72 -5t-60 -16t-47 -38.5t-16 -66.5q0 -54 37 -79.5t94 -25.5q156 0 208 199zM97 366h-39q38 160 221 160q23 0 47 -5t51 -17t44 -38t17 -62q0 -40 -34 -176q-3 -13 -13.5 -56t-15.5 -69t-5 -39q0 -33 28 -33q12 0 34 6
l-6 -34q-19 -5 -44 -5q-24 0 -37 16.5t-13 36.5q0 6 3.5 22.5t4.5 20.5h-2q-29 -52 -83.5 -79t-110.5 -27q-71 0 -115 34t-44 104q0 47 18 79.5t52 49t70.5 23t85.5 7.5q109 4 149 25t40 78q0 105 -129 105q-140 0 -174 -127zM221 640q0 41 29 70t70 29t70 -29t29 -70
t-29 -70t-70 -29t-70 29t-29 70zM248 640q0 -30 21 -51t51 -21t51 21t21 51t-21 51t-51 21t-51 -21t-21 -51z" />
    <glyph glyph-name="ae" unicode="&#xe6;" horiz-adv-x="852" 
d="M99 362h-39q14 77 68.5 120.5t133.5 43.5q68 0 113 -31t46 -96h2q24 55 79 91t117 36q83 0 133 -55.5t50 -137.5q0 -45 -8 -81h-392q-8 -33 -8 -78q0 -67 44 -110t113 -43q68 0 115.5 41.5t69.5 108.5h38q-30 -91 -86 -137t-150 -46q-66 0 -118.5 43.5t-58.5 114.5h-2
q-24 -68 -82 -113t-128 -45q-72 0 -117 37.5t-45 96.5q0 41 15.5 70.5t36.5 45.5t59 27t64.5 14.5t71.5 7.5q92 8 123 26.5t31 79.5q0 47 -32.5 73.5t-90.5 26.5q-61 0 -109 -36t-57 -95zM354 213l18 76h-2q-7 -8 -19 -14.5t-31 -10t-30.5 -5t-34 -3t-24.5 -1.5
q-1 0 -15.5 -1t-24.5 -2t-28.5 -3.5t-32 -7t-30.5 -11t-29.5 -16.5t-23.5 -22.5t-16.5 -30t-5.5 -38.5q0 -46 34.5 -74t83.5 -28q85 0 137.5 53.5t73.5 138.5zM407 285h352q5 24 5 53q0 64 -39.5 109.5t-104.5 45.5q-83 0 -138 -60t-75 -148z" />
    <glyph glyph-name="ccedilla" unicode="&#xe7;" horiz-adv-x="519" 
d="M481 354h-38q0 64 -38.5 101.5t-105.5 37.5q-71 0 -127.5 -43.5t-84.5 -107.5t-28 -132q0 -80 39 -134.5t117 -54.5q70 0 120 39.5t77 107.5h42q-29 -79 -85 -127t-134 -52l-36 -40l2 -2q9 4 27 4q32 0 55.5 -19t23.5 -50q0 -36 -32.5 -57t-69.5 -21q-40 0 -92 25l13 25
q46 -23 81 -23q26 0 44 14t18 38q0 17 -16 29t-37 12q-22 0 -48 -13l-14 15l57 63q-97 2 -143.5 61t-46.5 158q0 125 79 221.5t199 96.5q82 0 134.5 -48t47.5 -124z" />
    <glyph glyph-name="egrave" unicode="&#xe8;" horiz-adv-x="519" 
d="M468 252h-411q-5 -28 -5 -56q0 -74 44 -124.5t119 -50.5q70 0 125 44.5t69 105.5h38q-23 -83 -84.5 -133t-151.5 -50q-94 0 -145.5 58t-51.5 145q0 146 74.5 240.5t198.5 94.5q88 0 138 -55.5t50 -142.5q0 -32 -7 -76zM63 285h369q5 28 5 43q0 71 -40 118t-117 47
q-86 0 -142 -59.5t-75 -148.5zM228 731h48l99 -140h-37z" />
    <glyph glyph-name="eacute" unicode="&#xe9;" horiz-adv-x="519" 
d="M468 252h-411q-5 -28 -5 -56q0 -74 44 -124.5t119 -50.5q70 0 125 44.5t69 105.5h38q-23 -83 -84.5 -133t-151.5 -50q-94 0 -145.5 58t-51.5 145q0 146 74.5 240.5t198.5 94.5q88 0 138 -55.5t50 -142.5q0 -32 -7 -76zM63 285h369q5 28 5 43q0 71 -40 118t-117 47
q-86 0 -142 -59.5t-75 -148.5zM237 591l99 140h48l-110 -140h-37z" />
    <glyph glyph-name="ecircumflex" unicode="&#xea;" horiz-adv-x="519" 
d="M468 252h-411q-5 -28 -5 -56q0 -74 44 -124.5t119 -50.5q70 0 125 44.5t69 105.5h38q-23 -83 -84.5 -133t-151.5 -50q-94 0 -145.5 58t-51.5 145q0 146 74.5 240.5t198.5 94.5q88 0 138 -55.5t50 -142.5q0 -32 -7 -76zM63 285h369q5 28 5 43q0 71 -40 118t-117 47
q-86 0 -142 -59.5t-75 -148.5zM323 706l-110 -115h-44l133 140h46l88 -140h-42z" />
    <glyph glyph-name="edieresis" unicode="&#xeb;" horiz-adv-x="519" 
d="M468 252h-411q-5 -28 -5 -56q0 -74 44 -124.5t119 -50.5q70 0 125 44.5t69 105.5h38q-23 -83 -84.5 -133t-151.5 -50q-94 0 -145.5 58t-51.5 145q0 146 74.5 240.5t198.5 94.5q88 0 138 -55.5t50 -142.5q0 -32 -7 -76zM63 285h369q5 28 5 43q0 71 -40 118t-117 47
q-86 0 -142 -59.5t-75 -148.5zM367 594l19 103h44l-19 -103h-44zM208 594l19 103h44l-19 -103h-44z" />
    <glyph glyph-name="igrave" unicode="&#xec;" horiz-adv-x="167" 
d="M31 0h-38l107 514h38zM52 731h48l99 -140h-37z" />
    <glyph glyph-name="iacute" unicode="&#xed;" horiz-adv-x="167" 
d="M31 0h-38l107 514h38zM61 591l99 140h48l-110 -140h-37z" />
    <glyph glyph-name="icircumflex" unicode="&#xee;" horiz-adv-x="167" 
d="M31 0h-38l107 514h38zM147 706l-110 -115h-44l133 140h46l88 -140h-42z" />
    <glyph glyph-name="idieresis" unicode="&#xef;" horiz-adv-x="167" 
d="M31 0h-38l107 514h38zM191 594l19 103h44l-19 -103h-44zM32 594l19 103h44l-19 -103h-44z" />
    <glyph glyph-name="eth" unicode="&#xf0;" horiz-adv-x="537" 
d="M289 473q-104 -2 -170.5 -83.5t-66.5 -186.5q0 -81 41.5 -131.5t125.5 -50.5q56 0 103 26.5t75 68t43.5 87t15.5 86.5q0 52 -16.5 90t-43.5 57.5t-53.5 28t-53.5 8.5zM168 587l112 57q-49 46 -80 64l33 23q31 -17 83 -69l118 60l24 -20l-119 -60q61 -63 108 -159.5
t47 -187.5q0 -124 -74.5 -215.5t-199.5 -91.5q-102 0 -154 56.5t-52 155.5q0 123 76 214.5t201 91.5q34 0 68 -11t53 -31h2q-51 104 -110 158l-112 -57z" />
    <glyph glyph-name="ntilde" unicode="&#xf1;" horiz-adv-x="519" 
d="M-7 0l109 514h38l-25 -112h2q74 124 208 124q61 0 103.5 -38.5t42.5 -103.5q0 -34 -15 -103l-63 -281h-38l63 280q15 71 15 103q0 50 -32 80t-89 30q-61 0 -111.5 -40t-78 -94.5t-40.5 -116.5l-51 -242h-38zM435 690h29q-7 -36 -29 -62t-55 -26q-28 0 -71 29
q-46 28 -60 28q-19 0 -33 -17t-18 -38h-29q6 34 28 61t54 27q25 0 69 -28q41 -29 65 -29q17 0 30 17.5t20 37.5z" />
    <glyph glyph-name="ograve" unicode="&#xf2;" horiz-adv-x="537" 
d="M299 493q-75 2 -133 -42t-86 -109t-28 -135q0 -83 41.5 -134.5t125.5 -51.5q74 0 130 48.5t81.5 115.5t25.5 138q0 78 -39.5 123t-117.5 47zM291 526q95 0 149 -54t54 -148q0 -60 -18 -119t-51 -108t-86.5 -79t-118.5 -30q-102 0 -154 58t-52 158q0 80 32 152.5t97 121
t148 48.5zM237 731h48l99 -140h-37z" />
    <glyph glyph-name="oacute" unicode="&#xf3;" horiz-adv-x="537" 
d="M299 493q-75 2 -133 -42t-86 -109t-28 -135q0 -83 41.5 -134.5t125.5 -51.5q74 0 130 48.5t81.5 115.5t25.5 138q0 78 -39.5 123t-117.5 47zM291 526q95 0 149 -54t54 -148q0 -60 -18 -119t-51 -108t-86.5 -79t-118.5 -30q-102 0 -154 58t-52 158q0 80 32 152.5t97 121
t148 48.5zM246 591l99 140h48l-110 -140h-37z" />
    <glyph glyph-name="ocircumflex" unicode="&#xf4;" horiz-adv-x="537" 
d="M299 493q-75 2 -133 -42t-86 -109t-28 -135q0 -83 41.5 -134.5t125.5 -51.5q74 0 130 48.5t81.5 115.5t25.5 138q0 78 -39.5 123t-117.5 47zM291 526q95 0 149 -54t54 -148q0 -60 -18 -119t-51 -108t-86.5 -79t-118.5 -30q-102 0 -154 58t-52 158q0 80 32 152.5t97 121
t148 48.5zM332 706l-110 -115h-44l133 140h46l88 -140h-42z" />
    <glyph glyph-name="otilde" unicode="&#xf5;" horiz-adv-x="537" 
d="M299 493q-75 2 -133 -42t-86 -109t-28 -135q0 -83 41.5 -134.5t125.5 -51.5q74 0 130 48.5t81.5 115.5t25.5 138q0 78 -39.5 123t-117.5 47zM291 526q95 0 149 -54t54 -148q0 -60 -18 -119t-51 -108t-86.5 -79t-118.5 -30q-102 0 -154 58t-52 158q0 80 32 152.5t97 121
t148 48.5zM444 690h29q-7 -36 -29 -62t-55 -26q-28 0 -71 29q-46 28 -60 28q-19 0 -33 -17t-18 -38h-29q6 34 28 61t54 27q25 0 69 -28q41 -29 65 -29q17 0 30 17.5t20 37.5z" />
    <glyph glyph-name="odieresis" unicode="&#xf6;" horiz-adv-x="537" 
d="M299 493q-75 2 -133 -42t-86 -109t-28 -135q0 -83 41.5 -134.5t125.5 -51.5q74 0 130 48.5t81.5 115.5t25.5 138q0 78 -39.5 123t-117.5 47zM291 526q95 0 149 -54t54 -148q0 -60 -18 -119t-51 -108t-86.5 -79t-118.5 -30q-102 0 -154 58t-52 158q0 80 32 152.5t97 121
t148 48.5zM376 594l19 103h44l-19 -103h-44zM217 594l19 103h44l-19 -103h-44z" />
    <glyph glyph-name="divide" unicode="&#xf7;" horiz-adv-x="600" 
d="M552 233h-504v38h504v-38zM250 452q0 22 15 37t36 15t36.5 -15t15.5 -37q0 -21 -15.5 -36t-36.5 -15t-36 15t-15 36zM250 51q0 22 15 37t36 15t36.5 -15t15.5 -37q0 -21 -15.5 -36t-36.5 -15t-36 15t-15 36z" />
    <glyph glyph-name="oslash" unicode="&#xf8;" horiz-adv-x="537" 
d="M83 89l327 362q-39 39 -111 42q-75 2 -133 -42t-86 -109t-28 -135q0 -71 31 -118zM428 429l-327 -363q42 -45 118 -45q74 0 130 48.5t81.5 115.5t25.5 138q0 68 -28 106zM-5 -9l61 68q-42 54 -42 145q0 80 32 152.5t97 121t148 48.5q89 0 143 -49l50 56l21 -19l-52 -58
q41 -50 41 -132q0 -60 -18 -119t-51 -108t-86.5 -79t-118.5 -30q-93 0 -145 49l-59 -65z" />
    <glyph glyph-name="ugrave" unicode="&#xf9;" horiz-adv-x="519" 
d="M487 514l-109 -514h-38l24 108l-2 2q-36 -62 -82 -92t-119 -30q-61 0 -103.5 38.5t-42.5 103.5q0 34 15 103l63 281h38l-63 -280q-15 -71 -15 -103q0 -50 32 -80t89 -30q58 0 107 40t76.5 94.5t40.5 116.5l51 242h38zM228 731h48l99 -140h-37z" />
    <glyph glyph-name="uacute" unicode="&#xfa;" horiz-adv-x="519" 
d="M487 514l-109 -514h-38l24 108l-2 2q-36 -62 -82 -92t-119 -30q-61 0 -103.5 38.5t-42.5 103.5q0 34 15 103l63 281h38l-63 -280q-15 -71 -15 -103q0 -50 32 -80t89 -30q58 0 107 40t76.5 94.5t40.5 116.5l51 242h38zM237 591l99 140h48l-110 -140h-37z" />
    <glyph glyph-name="ucircumflex" unicode="&#xfb;" horiz-adv-x="519" 
d="M487 514l-109 -514h-38l24 108l-2 2q-36 -62 -82 -92t-119 -30q-61 0 -103.5 38.5t-42.5 103.5q0 34 15 103l63 281h38l-63 -280q-15 -71 -15 -103q0 -50 32 -80t89 -30q58 0 107 40t76.5 94.5t40.5 116.5l51 242h38zM323 706l-110 -115h-44l133 140h46l88 -140h-42z" />
    <glyph glyph-name="udieresis" unicode="&#xfc;" horiz-adv-x="519" 
d="M487 514l-109 -514h-38l24 108l-2 2q-36 -62 -82 -92t-119 -30q-61 0 -103.5 38.5t-42.5 103.5q0 34 15 103l63 281h38l-63 -280q-15 -71 -15 -103q0 -50 32 -80t89 -30q58 0 107 40t76.5 94.5t40.5 116.5l51 242h38zM367 594l19 103h44l-19 -103h-44zM208 594l19 103h44
l-19 -103h-44z" />
    <glyph glyph-name="yacute" unicode="&#xfd;" horiz-adv-x="426" 
d="M-67 -181l8 33q20 -3 36 -3q34 0 56 18t43 53l50 80l-101 514h44l86 -463l262 463h45l-349 -604q-29 -50 -58 -72t-81 -22q-11 0 -41 3zM191 591l99 140h48l-110 -140h-37z" />
    <glyph glyph-name="thorn" unicode="&#xfe;" 
d="M-48 -184l193 898h38l-65 -300h2q26 48 78.5 80t114.5 32q97 0 144 -58t47 -155q0 -79 -30 -152t-92.5 -123t-143.5 -50q-65 0 -111.5 39.5t-64.5 105.5h-2l-70 -317h-38zM240 21q71 0 124.5 48t77.5 113t24 132q0 80 -40.5 129.5t-117.5 49.5q-53 0 -98 -29t-72.5 -74.5
t-42.5 -96t-15 -96.5q0 -66 44.5 -121t115.5 -55z" />
    <glyph glyph-name="ydieresis" unicode="&#xff;" horiz-adv-x="426" 
d="M-67 -181l8 33q20 -3 36 -3q34 0 56 18t43 53l50 80l-101 514h44l86 -463l262 463h45l-349 -604q-29 -50 -58 -72t-81 -22q-11 0 -41 3zM321 594l19 103h44l-19 -103h-44zM162 594l19 103h44l-19 -103h-44z" />
    <glyph glyph-name="dotlessi" unicode="&#x131;" horiz-adv-x="167" 
d="M31 0h-38l107 514h38z" />
    <glyph glyph-name="Lslash" unicode="&#x141;" horiz-adv-x="500" 
d="M65 308l87 406h44l-83 -373l239 165l-8 -38l-239 -166l-54 -264h403l-8 -38h-447l57 269l-84 -59v34z" />
    <glyph glyph-name="lslash" unicode="&#x142;" horiz-adv-x="167" 
d="M-7 0l75 358l-82 -59l8 38l82 60l66 317h38l-59 -285l83 59l-8 -38l-83 -60l-82 -390h-38z" />
    <glyph glyph-name="OE" unicode="&#x152;" horiz-adv-x="1019" 
d="M539 186l72 335q6 26 7 38q1 15 -10 36q-24 46 -78 72t-105 26q-151 0 -246.5 -119.5t-95.5 -286.5q0 -121 64.5 -193.5t180.5 -72.5q93 0 145 48.5t66 116.5zM634 620l19 94h422l-8 -38h-379l-63 -286h352l-7 -38h-353l-64 -314h393l-8 -38h-437l15 71h-2
q-62 -88 -181 -88q-139 0 -216.5 82.5t-77.5 222.5q0 114 46 214.5t135 164.5t201 64q64 0 123.5 -28t87.5 -83h2z" />
    <glyph glyph-name="oe" unicode="&#x153;" horiz-adv-x="889" 
d="M461 285h351q4 34 4 43q0 69 -37.5 117t-106.5 48q-84 0 -135.5 -58.5t-75.5 -149.5zM845 252h-391q-7 -33 -7 -73q0 -70 41 -114t113 -44q68 0 116 41t70 109h38q-23 -83 -83.5 -133t-145.5 -50q-77 0 -125.5 43t-56.5 120h-2q-27 -79 -82.5 -121t-133.5 -42
q-86 0 -134 58t-48 140t29.5 157.5t93.5 129t148 53.5q75 0 122 -45.5t48 -119.5h2q23 70 81.5 117.5t129.5 47.5q87 0 136.5 -54.5t49.5 -140.5q0 -37 -9 -79zM282 493q-54 0 -99.5 -28.5t-73 -73.5t-42.5 -96t-15 -101q0 -75 39 -124t115 -49q54 0 97.5 31t68.5 80
t37.5 101.5t12.5 101.5q0 71 -35 114.5t-105 43.5z" />
    <glyph glyph-name="Scaron" unicode="&#x160;" horiz-adv-x="630" 
d="M19 235h45q-1 -10 -1 -42q0 -73 52.5 -122.5t160.5 -49.5q102 0 165 41.5t63 128.5q0 35 -16.5 62t-47.5 44.5t-57.5 27.5t-62.5 21q-7 2 -11 3q-37 12 -56.5 18.5t-51 22.5t-47.5 33.5t-29 47t-13 66.5q0 92 74.5 143t181.5 51q102 0 169.5 -46.5t67.5 -133.5
q0 -23 -3 -41h-44q3 20 3 37q0 72 -55.5 109t-138.5 37q-53 0 -98.5 -14t-79 -50.5t-33.5 -91.5q0 -37 14.5 -64t43 -43.5t56.5 -26.5t69 -22l12 -3q44 -12 73.5 -24.5t61 -33.5t47 -52.5t15.5 -74.5q0 -100 -77 -155t-197 -55q-109 0 -182 54t-73 148v50zM549 904
l-133 -140h-46l-88 140h42l71 -115l110 115h44z" />
    <glyph glyph-name="scaron" unicode="&#x161;" horiz-adv-x="463" 
d="M-2 175h38q0 -4 -0.5 -12t-0.5 -12q0 -130 174 -130q48 0 93 30.5t45 79.5q0 21 -9.5 39t-19.5 28t-35.5 22t-36 16t-43.5 15t-52.5 20t-42.5 25t-34 38.5t-11 52.5q0 68 54.5 103.5t127.5 35.5q75 0 125.5 -34t50.5 -95q0 -4 -2 -38h-38q2 24 2 33q0 48 -39.5 74.5
t-98.5 26.5q-55 0 -99.5 -25t-44.5 -77q0 -19 9 -35.5t19.5 -26.5t34.5 -21t36.5 -16t42.5 -15q33 -11 53.5 -20.5t43.5 -25.5t34 -38t11 -51q0 -72 -57 -113t-134 -41q-89 0 -143 36.5t-54 117.5q0 21 1 33zM438 731l-133 -140h-46l-88 140h42l71 -115l110 115h44z" />
    <glyph glyph-name="Ydieresis" unicode="&#x178;" 
d="M190 0l65 300l-191 414h44l174 -378l322 378h55l-362 -421l-63 -293h-44zM413 767l19 103h44l-19 -103h-44zM254 767l19 103h44l-19 -103h-44z" />
    <glyph glyph-name="Zcaron" unicode="&#x17d;" horiz-adv-x="537" 
d="M-55 38l596 638h-454l9 38h502l-8 -38l-594 -638h489l-7 -38h-541zM502 904l-133 -140h-46l-88 140h42l71 -115l110 115h44z" />
    <glyph glyph-name="zcaron" unicode="&#x17e;" horiz-adv-x="426" 
d="M-51 0l7 38l430 438h-328l9 38h381l-10 -38l-433 -438h349l-8 -38h-397zM420 731l-133 -140h-46l-88 140h42l71 -115l110 115h44z" />
    <glyph glyph-name="florin" unicode="&#x192;" 
d="M141 396l9 33h107l22 92q12 52 23.5 83.5t31.5 64t52 47.5t77 15q8 0 16 -1t18 -2.5t16 -2.5l-10 -37q-35 5 -41 5q-63 0 -89.5 -38.5t-49.5 -133.5l-22 -92h119l-9 -33h-118l-102 -383q-10 -39 -18 -63t-22.5 -52.5t-31 -44t-43 -26.5t-59.5 -11q-25 0 -47 6l10 38
q19 -6 37 -6q25 0 45.5 10.5t32.5 24t23.5 38.5t16 41t12.5 45l102 383h-108z" />
    <glyph glyph-name="circumflex" unicode="&#x2c6;" horiz-adv-x="167" 
d="M174 706l-110 -115h-44l133 140h46l88 -140h-42z" />
    <glyph glyph-name="caron" unicode="&#x2c7;" horiz-adv-x="167" 
d="M317 731l-133 -140h-46l-88 140h42l71 -115l110 115h44z" />
    <glyph glyph-name="breve" unicode="&#x2d8;" horiz-adv-x="167" 
d="M47 731h33q1 -39 24.5 -63t62.5 -24q40 0 72 24.5t39 62.5h33q-9 -52 -50 -86t-94 -34q-56 0 -87 32t-33 88z" />
    <glyph glyph-name="dotaccent" unicode="&#x2d9;" horiz-adv-x="167" 
d="M121 594l19 103h44l-19 -103h-44z" />
    <glyph glyph-name="ring" unicode="&#x2da;" horiz-adv-x="167" 
d="M54 640q0 41 29 70t70 29t70 -29t29 -70t-29 -70t-70 -29t-70 29t-29 70zM81 640q0 -30 21 -51t51 -21t51 21t21 51t-21 51t-51 21t-51 -21t-21 -51z" />
    <glyph glyph-name="ogonek" unicode="&#x2db;" horiz-adv-x="167" 
d="M132 2h34q-130 -85 -130 -145q0 -35 44 -35t78 46l12 -14q-15 -24 -43.5 -44.5t-56.5 -20.5q-72 0 -72 63q0 9 3 18.5t7 18t12 18.5t14 16.5t17.5 16.5t17 15t18.5 14.5t16.5 12.5t16.5 12z" />
    <glyph glyph-name="tilde" unicode="&#x2dc;" horiz-adv-x="167" 
d="M286 690h29q-7 -36 -29 -62t-55 -26q-28 0 -71 29q-46 28 -60 28q-19 0 -33 -17t-18 -38h-29q6 34 28 61t54 27q25 0 69 -28q41 -29 65 -29q17 0 30 17.5t20 37.5z" />
    <glyph glyph-name="hungarumlaut" unicode="&#x2dd;" horiz-adv-x="167" 
d="M12 591l99 140h48l-110 -140h-37zM160 591l99 140h48l-110 -140h-37z" />
    <glyph glyph-name="endash" unicode="&#x2013;" horiz-adv-x="500" 
d="M488 253h-500l8 38h500z" />
    <glyph glyph-name="emdash" unicode="&#x2014;" horiz-adv-x="1000" 
d="M866 291l-8 -38h-740l8 38h740z" />
    <glyph glyph-name="quoteleft" unicode="&#x2018;" horiz-adv-x="204" 
d="M102 485l23 103q24 108 99 126l-7 -33q-19 -6 -32 -23t-17.5 -30.5t-10.5 -39.5h18l-23 -103h-50z" />
    <glyph glyph-name="quoteright" unicode="&#x2019;" horiz-adv-x="204" 
d="M209 714l-23 -103q-24 -108 -99 -126l7 33q19 6 32 23t17.5 30.5t10.5 39.5h-18l23 103h50z" />
    <glyph glyph-name="quotesinglbase" unicode="&#x201a;" horiz-adv-x="204" 
d="M29 103h50l-22 -103q-22 -107 -100 -126l7 33q19 6 32 23t17.5 30.5t10.5 39.5h-17z" />
    <glyph glyph-name="quotedblleft" unicode="&#x201c;" horiz-adv-x="315" 
d="M137 485h-50l23 103q24 108 99 126l-7 -33q-19 -6 -32 -23t-17.5 -30.5t-10.5 -39.5h18zM263 485h-50l23 103q24 108 99 126l-7 -33q-19 -6 -32 -23t-17.5 -30.5t-10.5 -39.5h18z" />
    <glyph glyph-name="quotedblright" unicode="&#x201d;" horiz-adv-x="315" 
d="M159 714h50l-22 -103q-22 -107 -100 -126l7 33q19 6 32 23t17.5 30.5t10.5 39.5h-17zM285 714h50l-22 -103q-22 -107 -100 -126l7 33q19 6 32 23t17.5 30.5t10.5 39.5h-17z" />
    <glyph glyph-name="quotedblbase" unicode="&#x201e;" horiz-adv-x="315" 
d="M21 103h50l-22 -103q-22 -107 -100 -126l7 33q19 6 32 23t17.5 30.5t10.5 39.5h-17zM147 103h50l-22 -103q-22 -107 -100 -126l7 33q19 6 32 23t17.5 30.5t10.5 39.5h-17z" />
    <glyph glyph-name="dagger" unicode="&#x2020;" 
d="M376 714l-43 -200h205l-7 -33h-205l-133 -627h-38l133 627h-205l7 33h205l43 200h38z" />
    <glyph glyph-name="daggerdbl" unicode="&#x2021;" 
d="M197 54h-205l7 33h205l84 394h-205l7 33h205l43 200h38l-43 -200h205l-7 -33h-205l-84 -394h205l-7 -33h-205l-42 -200h-38z" />
    <glyph glyph-name="bullet" unicode="&#x2022;" horiz-adv-x="500" 
d="M72 357q0 74 52 126t126 52t126.5 -52t52.5 -126t-52.5 -126.5t-126.5 -52.5t-126 52.5t-52 126.5z" />
    <glyph glyph-name="ellipsis" unicode="&#x2026;" horiz-adv-x="1000" 
d="M74 0l23 103h50l-23 -103h-50zM407 0l23 103h50l-23 -103h-50zM740 0l23 103h50l-23 -103h-50z" />
    <glyph glyph-name="perthousand" unicode="&#x2030;" horiz-adv-x="1056" 
d="M187 397q61 0 97.5 52.5t36.5 116.5q0 45 -23 74t-70 29q-63 0 -99 -49t-36 -118q0 -48 23.5 -76.5t70.5 -28.5zM57 -34l532 758h41l-532 -758h-41zM185 364q-59 0 -94.5 35.5t-35.5 94.5q0 84 48.5 146t130.5 62q59 0 92 -37.5t33 -97.5q0 -79 -48.5 -141t-125.5 -62z
M472 -12q-59 0 -94.5 35.5t-35.5 94.5q0 84 48.5 146t130.5 62q59 0 92 -37.5t33 -97.5q0 -79 -48.5 -141t-125.5 -62zM474 21q61 0 97.5 52.5t36.5 116.5q0 45 -23 74t-70 29q-63 0 -99 -49t-36 -118q0 -48 23.5 -76.5t70.5 -28.5zM827 -12q-59 0 -94.5 35.5t-35.5 94.5
q0 84 48.5 146t130.5 62q59 0 92 -37.5t33 -97.5q0 -79 -48.5 -141t-125.5 -62zM829 21q61 0 97.5 52.5t36.5 116.5q0 45 -23 74t-70 29q-63 0 -99 -49t-36 -118q0 -48 23.5 -76.5t70.5 -28.5z" />
    <glyph glyph-name="guilsinglleft" unicode="&#x2039;" horiz-adv-x="259" 
d="M197 423l-11 -51l-113 -105l70 -97l-11 -49l-91 132l9 38z" />
    <glyph glyph-name="guilsinglright" unicode="&#x203a;" horiz-adv-x="259" 
d="M31 121l11 51l113 105l-70 97l11 49l91 -132l-9 -38z" />
    <glyph glyph-name="fraction" unicode="&#x2044;" horiz-adv-x="167" 
d="M-169 -24l465 738h40l-465 -738h-40z" />
    <glyph glyph-name="trademark" unicode="&#x2122;" horiz-adv-x="990" 
d="M404 714v-33h-143v-379h-32v379h-144v33h319zM542 714l152 -346l152 346h59v-412h-32v379h-3l-167 -379h-18l-167 379h-3v-379h-32v412h59z" />
    <glyph glyph-name="minus" unicode="&#x2212;" horiz-adv-x="600" 
d="M552 233h-504v38h504v-38z" />
    <glyph glyph-name="fi" unicode="&#xfb01;" horiz-adv-x="389" 
d="M29 481l7 33h89l9 40q18 83 36 113q35 54 105 55q31 0 54 -5l-7 -33q-30 5 -40 5q-37 0 -61 -22t-30 -40.5t-16 -61.5q-2 -7 -3 -11l-9 -40h109l-7 -33h-109l-103 -481h-38l102 481h-88zM214 0l107 514h38l-107 -514h-38zM342 611l21 103h38l-21 -103h-38z" />
    <glyph glyph-name="fl" unicode="&#xfb02;" horiz-adv-x="389" 
d="M29 481l7 33h89l9 40q18 83 36 113q35 54 105 55q31 0 54 -5l-7 -33q-30 5 -40 5q-37 0 -61 -22t-30 -40.5t-16 -61.5q-2 -7 -3 -11l-9 -40h109l-7 -33h-109l-103 -481h-38l102 481h-88zM214 0l151 714h37l-150 -714h-38z" />
    </font>
</defs>
</svg>
