<?xml version="1.0" standalone="no"?>
<!DOCTYPE svg PUBLIC "-//W3C//DTD SVG 1.1//EN" "http://www.w3.org/Graphics/SVG/1.1/DTD/svg11.dtd" >
<svg xmlns="http://www.w3.org/2000/svg" xmlns:xlink="http://www.w3.org/1999/xlink" version="1.1">
<metadata>
Created by FontForge 20170731 at Mon Feb 13 21:55:14 2006
 By Aleksey,,,
Copyright (c) 1988, 1990, 1993 Adobe Systems Incorporated.  All Rights Reserved.Helvetica is a trademark of Linotype-Hell AG and/or its subsidiaries.
</metadata>
<defs>
<font id="HelveticaNeue-HeavyItalic" horiz-adv-x="630" >
  <font-face 
    font-family="Helvetica Neue"
    font-weight="500"
    font-style="italic"
    font-stretch="normal"
    units-per-em="1000"
    panose-1="0 0 0 0 0 0 0 0 0 0"
    ascent="800"
    descent="-200"
    x-height="519"
    cap-height="714"
    bbox="-165 -228 1139 952"
    underline-thickness="50"
    underline-position="-200"
    slope="-12"
    unicode-range="U+0020-FB02"
  />
<missing-glyph horiz-adv-x="315" 
 />
    <glyph glyph-name=".notdef" horiz-adv-x="315" 
 />
    <glyph glyph-name=".null" horiz-adv-x="0" 
 />
    <glyph glyph-name="nonmarkingreturn" horiz-adv-x="333" 
 />
    <glyph glyph-name="space" unicode=" " horiz-adv-x="315" 
 />
    <glyph glyph-name="exclam" unicode="!" horiz-adv-x="315" 
d="M321 714l-37 -179l-111 -298h-83l17 298l38 179h176zM-5 0l37 176h175l-37 -176h-175z" />
    <glyph glyph-name="quotedbl" unicode="&#x22;" horiz-adv-x="500" 
d="M387 364v350h144v-350h-144zM155 364v350h144v-350h-144z" />
    <glyph glyph-name="numbersign" unicode="#" 
d="M531 295l-15 -105h-77l-26 -190h-115l26 190h-81l-26 -190h-115l26 190h-89l15 105h89l15 110h-89l15 105h89l26 187h115l-26 -187h81l26 187h115l-26 -187h77l-15 -105h-77l-15 -110h77zM354 405h-81l-15 -110h81z" />
    <glyph glyph-name="dollar" unicode="$" 
d="M332 283l-33 -154q41 0 74.5 20t33.5 60q0 32 -20 48t-55 26zM311 456l28 129q-41 0 -66.5 -18.5t-25.5 -54.5q0 -23 15 -35t49 -21zM194 -100l19 89q-119 13 -179 78.5t-52 172.5h184q-1 -42 20 -70t57 -36l35 164q-112 35 -164.5 75.5t-52.5 118.5q0 118 84 177.5
t207 59.5q11 0 16 -1l13 63h57l-14 -67q92 -10 149.5 -66.5t53.5 -158.5h-176q2 67 -56 85l-30 -144q43 -11 69 -19.5t60 -25.5t53 -37.5t32.5 -53.5t13.5 -75q0 -84 -49.5 -141t-120 -80t-154.5 -23l-18 -85h-57z" />
    <glyph glyph-name="percent" unicode="%" horiz-adv-x="981" 
d="M701 -9q-71 0 -110.5 41.5t-39.5 112.5q0 97 54.5 164t149.5 67q72 0 113.5 -39.5t41.5 -111.5q0 -96 -56 -165t-153 -69zM751 297q-28 0 -49 -33t-28.5 -68.5t-7.5 -60.5q0 -65 44 -65q24 0 42 19.5t26.5 49t12.5 56t4 47.5q0 55 -44 55zM798 724l-511 -751h-106
l511 751h106zM221 321q-71 0 -110.5 41.5t-39.5 112.5q0 97 54.5 164t149.5 67q72 0 113.5 -39.5t41.5 -111.5q0 -96 -56 -165t-153 -69zM271 627q-28 0 -49 -33t-28.5 -68.5t-7.5 -60.5q0 -65 44 -65q24 0 42 19.5t26.5 49t12.5 56t4 47.5q0 55 -44 55z" />
    <glyph glyph-name="ampersand" unicode="&#x26;" horiz-adv-x="704" 
d="M366 168l-79 136q-93 -44 -93 -108q0 -32 21 -49.5t56 -17.5q59 0 95 39zM421 362l60 -98q28 29 44 81h151q-29 -124 -118 -204l92 -141h-184l-26 41q-86 -56 -184 -56t-165 57t-67 153q0 79 54 135.5t137 86.5q-39 62 -39 114q0 88 58.5 143t146.5 55q37 0 69.5 -8.5
t62 -27t46.5 -54t17 -84.5q0 -66 -44.5 -115t-110.5 -78zM432 556q0 58 -53 58q-27 0 -43 -16t-16 -46q0 -41 39 -90q34 21 53.5 42.5t19.5 51.5z" />
    <glyph glyph-name="quotesingle" unicode="'" horiz-adv-x="296" 
d="M128 364v350h144v-350h-144z" />
    <glyph glyph-name="parenleft" unicode="(" horiz-adv-x="315" 
d="M250 729h149q-215 -283 -215 -592q0 -65 5 -120t10.5 -89.5t18.5 -101.5h-136q-52 147 -52 311q0 167 55 307.5t165 284.5z" />
    <glyph glyph-name="parenright" unicode=")" horiz-adv-x="315" 
d="M55 -174h-149q215 283 215 592q0 65 -5 120t-10.5 89.5t-18.5 101.5h136q52 -147 52 -311q0 -167 -55 -307.5t-165 -284.5z" />
    <glyph glyph-name="asterisk" unicode="*" horiz-adv-x="444" 
d="M191 507l-117 54l41 85l113 -60l16 128h95l-22 -138l125 27l19 -93l-127 -20l61 -109l-82 -46l-60 112l-90 -103l-69 66z" />
    <glyph glyph-name="plus" unicode="+" horiz-adv-x="600" 
d="M228 325v181h144v-181h180v-144h-180v-181h-144v181h-180v144h180z" />
    <glyph glyph-name="comma" unicode="," horiz-adv-x="315" 
d="M-2 0l36 176h181l-36 -176q-13 -66 -48.5 -107t-77 -55t-92.5 -12l18 80q83 9 96 94h-77z" />
    <glyph glyph-name="hyphen" unicode="-" horiz-adv-x="407" 
d="M324 200h-308l30 144h308z" />
    <glyph glyph-name="period" unicode="." horiz-adv-x="315" 
d="M-5 0l37 176h183l-37 -176h-183z" />
    <glyph glyph-name="slash" unicode="/" horiz-adv-x="407" 
d="M-76 -15l395 744h164l-395 -744h-164z" />
    <glyph glyph-name="zero" unicode="0" 
d="M354 568q-47 0 -82.5 -37t-52.5 -92t-25 -103t-8 -85q0 -55 22.5 -88.5t67.5 -33.5q38 0 69 25.5t48.5 63t29.5 84t16 84t4 67.5q0 53 -22.5 84t-66.5 31zM357 706q250 0 250 -269q0 -115 -37 -214t-118 -165.5t-192 -66.5q-115 0 -176.5 72.5t-61.5 189.5q0 76 21 154
t61 145.5t106 110.5t147 43z" />
    <glyph glyph-name="one" unicode="1" 
d="M376 0h-180l95 449l-167 -5l26 125q89 2 145.5 29t89.5 99h139z" />
    <glyph glyph-name="two" unicode="2" 
d="M528 0h-556q3 64 28 114t71 88t87 62.5t107 58.5t99 54q38 23 58 46.5t20 63.5q0 38 -26.5 59.5t-67.5 21.5q-59 0 -89.5 -35.5t-32.5 -94.5h-162q9 123 89.5 195.5t203.5 72.5q110 0 182.5 -51t72.5 -155q0 -118 -118 -203q-67 -48 -215 -116q-12 -6 -71 -35v-2h353z
" />
    <glyph glyph-name="three" unicode="3" 
d="M8 250h163q-2 -18 -2 -39q0 -36 30 -59t75 -23q53 0 88 28t35 78q0 83 -146 73l24 115h40q126 0 126 79q0 32 -26.5 49t-61.5 17q-102 0 -120 -98h-159q15 113 92.5 174.5t193.5 61.5q64 0 116.5 -16t90.5 -59t38 -108q0 -58 -35.5 -100t-99.5 -54v-2q47 -12 72 -48.5
t25 -87.5q0 -54 -19 -97t-49 -69t-70.5 -43.5t-79.5 -24t-80 -6.5q-115 0 -189.5 55.5t-74.5 145.5q0 10 3 58z" />
    <glyph glyph-name="four" unicode="4" 
d="M396 531l-231 -238h182l51 238h-2zM453 0h-170l33 155h-321l29 136l387 406h187l-84 -404h90l-28 -138h-91z" />
    <glyph glyph-name="five" unicode="5" 
d="M169 697h443l-30 -144h-304l-40 -119h2q43 44 127 44q95 0 151.5 -56.5t56.5 -153.5q0 -125 -89 -201t-216 -76q-118 0 -193 54t-72 167h165q8 -83 114 -83q54 0 87.5 34.5t33.5 85.5q0 47 -27 75.5t-76 28.5q-66 0 -107 -50h-152z" />
    <glyph glyph-name="six" unicode="6" 
d="M622 515h-163q-3 33 -25 50q-22 16 -56 16q-115 0 -164 -177h2q57 62 154 62q91 0 149 -55t58 -145q0 -121 -80.5 -198t-202.5 -77q-134 0 -197.5 76t-63.5 206q0 111 41 208.5t123 161t189 63.5q62 0 114 -19t87 -63.5t35 -108.5zM316 351q-54 0 -86.5 -34t-32.5 -90
q0 -41 29.5 -69.5t73.5 -28.5q53 0 83 33.5t30 82.5q0 48 -27 77t-70 29z" />
    <glyph glyph-name="seven" unicode="7" 
d="M417 544h-331l32 153h516l-32 -153q-95 -75 -183 -204q-119 -175 -149 -340h-190q49 214 208 407q54 73 129 135v2z" />
    <glyph glyph-name="eight" unicode="8" 
d="M354 706q48 0 89.5 -8t81 -27t62.5 -55.5t23 -87.5q0 -60 -39 -106t-99 -54v-2q51 -11 81.5 -52.5t30.5 -96.5q0 -63 -25 -108.5t-69 -70t-94 -36t-108 -11.5q-285 0 -285 200q0 76 48.5 123.5t125.5 59.5v2q-39 14 -62.5 47t-23.5 75q0 103 77.5 155.5t185.5 52.5z
M349 418q47 0 77 23.5t30 64.5q0 39 -29 57t-71 18q-46 0 -78.5 -19.5t-32.5 -62.5q0 -81 104 -81zM302 313q-53 0 -91 -27t-38 -80q0 -90 118 -90q54 0 88.5 27t34.5 79q0 46 -33 68.5t-79 22.5z" />
    <glyph glyph-name="nine" unicode="9" 
d="M5 182h163q3 -33 26 -50q20 -16 55 -16q115 0 164 177h-2q-57 -62 -154 -62q-91 0 -150 55t-59 145q0 121 81.5 198t203.5 77q134 0 197.5 -76t63.5 -206q0 -111 -41 -208.5t-123 -161t-189 -63.5q-62 0 -114 19t-87 63.5t-35 108.5zM212 452q0 -48 27.5 -77t70.5 -29
q54 0 87 34t33 90q0 41 -29.5 69.5t-74.5 28.5q-53 0 -83.5 -33.5t-30.5 -82.5z" />
    <glyph glyph-name="colon" unicode=":" horiz-adv-x="315" 
d="M-5 0l37 176h181l-37 -176h-181zM64 330l37 176h181l-37 -176h-181z" />
    <glyph glyph-name="semicolon" unicode=";" horiz-adv-x="315" 
d="M-2 0l36 176h181l-36 -176q-13 -66 -48.5 -107t-77 -55t-92.5 -12l18 80q83 9 96 94h-77zM64 330l37 176h181l-37 -176h-181z" />
    <glyph glyph-name="less" unicode="&#x3c;" horiz-adv-x="600" 
d="M554 -8l-508 190v142l508 190v-154l-307 -106v-2l307 -106v-154z" />
    <glyph glyph-name="equal" unicode="=" horiz-adv-x="600" 
d="M552 449v-144h-504v144h504zM552 201v-144h-504v144h504z" />
    <glyph glyph-name="greater" unicode="&#x3e;" horiz-adv-x="600" 
d="M46 -8v154l307 106v2l-307 106v154l508 -190v-142z" />
    <glyph glyph-name="question" unicode="?" horiz-adv-x="574" 
d="M230 490h-170q1 114 77 176.5t211 62.5q109 0 169 -47t60 -135q0 -26 -4 -47.5t-10 -37.5t-18 -31t-21 -24t-27 -20.5t-29 -17.5t-33.5 -17.5t-33.5 -17.5q-67 -36 -71 -97h-158q9 77 43 118t121 86q71 35 71 97q0 61 -73 61q-51 0 -75.5 -27.5t-28.5 -81.5zM114 0
l37 176h175l-37 -176h-175z" />
    <glyph glyph-name="at" unicode="@" horiz-adv-x="800" 
d="M488 357q0 36 -21.5 57.5t-57.5 21.5q-42 0 -70 -31t-28 -71q0 -35 20 -57.5t55 -22.5q46 0 74 29.5t28 73.5zM517 488l9 48h94l-44 -238q-13 -54 7 -54q36 0 64 38.5t28 112.5q0 117 -71.5 180.5t-189.5 63.5q-123 0 -198.5 -79.5t-75.5 -203.5q0 -129 81 -205t210 -76
q108 0 189 61h98q-109 -151 -295 -151q-162 0 -275 105.5t-113 265.5q0 159 111.5 266t270.5 107q139 0 243.5 -84.5t104.5 -217.5q0 -65 -20 -117.5t-49.5 -83t-65 -51.5t-64 -28.5t-48.5 -7.5q-60 0 -62 50h-2q-37 -50 -96 -50q-65 0 -113.5 53.5t-48.5 125.5q0 92 55 160
t143 68q81 0 123 -58z" />
    <glyph glyph-name="A" unicode="A" horiz-adv-x="704" 
d="M-77 0l417 714h188l117 -714h-187l-17 128h-251l-72 -128h-195zM396 523l-134 -257h163l-27 257h-2z" />
    <glyph glyph-name="B" unicode="B" horiz-adv-x="722" 
d="M-8 0l149 714h333q69 0 115.5 -13t69 -36.5t30.5 -48.5t8 -58q0 -70 -35 -116t-97 -60v-2q46 -11 73.5 -50.5t27.5 -89.5q0 -110 -85 -174.5t-240 -65.5h-349zM295 568l-28 -135h132q112 0 112 79q0 56 -94 56h-122zM241 308l-34 -162h146q58 0 92.5 19t34.5 72
q0 31 -18.5 47.5t-38.5 20t-51 3.5h-131z" />
    <glyph glyph-name="C" unicode="C" horiz-adv-x="741" 
d="M718 457h-186q6 52 -23 85.5t-92 33.5q-50 0 -89.5 -27t-61 -69.5t-32.5 -88.5t-11 -91q0 -77 29 -119.5t103 -42.5q58 0 99.5 35.5t51.5 90.5h186q-61 -279 -363 -279q-38 0 -74.5 7.5t-77 29.5t-70.5 56.5t-50 93.5t-20 135q0 116 44.5 211t133 153t205.5 58
q140 0 219.5 -68t78.5 -204z" />
    <glyph glyph-name="D" unicode="D" horiz-adv-x="759" 
d="M-8 0l151 714h268q147 0 232.5 -72.5t85.5 -229.5q0 -177 -108 -294.5t-310 -117.5h-319zM295 554l-83 -394h123q57 0 100 23.5t65 61t32.5 76t10.5 76.5q0 157 -141 157h-107z" />
    <glyph glyph-name="E" unicode="E" horiz-adv-x="685" 
d="M-8 0l148 714h570l-34 -160h-384l-23 -114h354l-30 -144h-354l-28 -136h387l-34 -160h-572z" />
    <glyph glyph-name="F" unicode="F" horiz-adv-x="611" 
d="M-8 0l149 714h531l-33 -160h-345l-28 -135h297l-30 -144h-297l-58 -275h-186z" />
    <glyph glyph-name="G" unicode="G" horiz-adv-x="778" 
d="M733 471h-176q1 48 -33 76.5t-86 28.5q-54 0 -96.5 -25.5t-67.5 -67t-37.5 -89.5t-12.5 -98q0 -76 37 -117t108 -41q67 0 105 26t59 89h-131l29 138h297l-83 -391h-119l4 72h-2q-34 -46 -79 -66.5t-128 -20.5q-55 0 -102.5 15.5t-89.5 49.5t-66.5 97t-24.5 149
q0 17 2.5 41.5t12 67.5t25.5 84t47 86t71.5 78t104 54.5t140.5 21.5q140 0 218 -64.5t74 -193.5z" />
    <glyph glyph-name="H" unicode="H" horiz-adv-x="741" 
d="M-11 0l149 714h186l-54 -260h248l54 260h186l-149 -714h-186l61 294h-248l-61 -294h-186z" />
    <glyph glyph-name="I" unicode="I" horiz-adv-x="315" 
d="M-8 0l149 714h186l-149 -714h-186z" />
    <glyph glyph-name="J" unicode="J" horiz-adv-x="593" 
d="M605 714l-99 -485q-25 -126 -96.5 -185t-197.5 -59q-39 0 -73.5 8.5t-67 28t-52 57.5t-19.5 91q0 51 14 112h171q-15 -54 -15 -83q0 -61 60 -61q41 0 60.5 21t29.5 70l99 485h186z" />
    <glyph glyph-name="K" unicode="K" horiz-adv-x="741" 
d="M-8 0l151 714h186l-59 -280h2l291 280h246l-341 -294l212 -420h-212l-147 300l-97 -83l-46 -217h-186z" />
    <glyph glyph-name="L" unicode="L" horiz-adv-x="593" 
d="M-8 0l149 714h186l-116 -554h334l-34 -160h-519z" />
    <glyph glyph-name="M" unicode="M" horiz-adv-x="926" 
d="M-8 0l150 714h256l34 -509h2l246 509h256l-149 -714h-176l134 567h-2l-282 -567h-143l-42 567h-2l-106 -567h-176z" />
    <glyph glyph-name="N" unicode="N" horiz-adv-x="741" 
d="M-16 0l149 714h191l167 -467h2l89 467h180l-149 -714h-191l-165 467h-2l-91 -467h-180z" />
    <glyph glyph-name="O" unicode="O" horiz-adv-x="778" 
d="M33 301q0 182 110 305t290 123q42 0 81 -6.5t84 -26.5t77.5 -52t54 -88t21.5 -129q0 -194 -108.5 -318t-295.5 -124q-149 0 -231.5 83.5t-82.5 232.5zM219 300q0 -73 36 -117.5t107 -44.5q63 0 111 45.5t70 106.5t22 121q0 82 -32.5 123.5t-105.5 41.5q-68 0 -117 -45.5
t-70 -106.5t-21 -124z" />
    <glyph glyph-name="P" unicode="P" horiz-adv-x="685" 
d="M-15 0l150 714h351q95 0 150.5 -58.5t55.5 -154.5q0 -130 -85.5 -200t-221.5 -70h-165l-49 -231h-186zM289 561l-37 -177h131q62 0 92.5 27t30.5 73q0 47 -29.5 62t-82.5 15h-105z" />
    <glyph glyph-name="Q" unicode="Q" horiz-adv-x="778" 
d="M348 209l98 77l57 -69q62 85 62 194q0 82 -32.5 123.5t-105.5 41.5q-68 0 -117 -45.5t-70 -106.5t-21 -124q0 -73 36 -117.5t107 -44.5q20 0 40 6zM685 -6l-98 -75l-79 96q-70 -30 -161 -30q-149 0 -231.5 83.5t-82.5 232.5q0 182 110 305t290 123q42 0 81 -6.5t84 -26.5
t77.5 -52t54 -88t21.5 -129q0 -223 -137 -346z" />
    <glyph glyph-name="R" unicode="R" horiz-adv-x="722" 
d="M289 570l-36 -172h148q125 0 125 98q0 74 -100 74h-137zM-15 0l148 714h350q53 0 91.5 -8t71 -27.5t49.5 -57t17 -92.5q0 -83 -40.5 -135t-122.5 -64v-2q39 -10 56 -38t17 -81q0 -27 -1.5 -70.5t-1.5 -62.5q0 -56 11 -76h-187q-6 28 -6 41q0 17 2.5 57.5t2.5 65.5
q0 96 -93 96h-124l-54 -260h-186z" />
    <glyph glyph-name="S" unicode="S" horiz-adv-x="667" 
d="M0 240h186q0 -56 31.5 -79t99.5 -23q53 0 79.5 20t26.5 51q0 20 -11 35t-32.5 25.5t-41.5 16.5t-50.5 14t-46.5 14q-76 27 -118.5 69t-42.5 115q0 77 43.5 131t107.5 77t139 23q60 0 108.5 -12t88 -37.5t60.5 -71.5t19 -109h-186q0 39 -25 58t-75 19q-38 0 -66 -16.5
t-28 -47.5q0 -28 20.5 -39.5t90.5 -30.5q12 -3 19 -5q43 -12 76 -26.5t66.5 -39.5t52 -63.5t18.5 -88.5q0 -100 -85.5 -167t-236.5 -67q-132 0 -210 66t-77 189z" />
    <glyph glyph-name="T" unicode="T" 
d="M690 714l-32 -160h-210l-117 -554h-186l117 554h-210l32 160h606z" />
    <glyph glyph-name="U" unicode="U" horiz-adv-x="741" 
d="M762 714l-85 -408q-13 -64 -27.5 -108t-41 -87.5t-62.5 -69t-92.5 -41t-132.5 -15.5q-135 0 -212 59t-77 147q0 56 20 150l81 373h186l-83 -382q-18 -87 -18 -109q0 -40 28.5 -62.5t78.5 -22.5q24 0 43 3.5t34.5 13.5t27 18.5t21 27t15.5 29.5t13 36.5t10 37.5t10 42
l77 368h186z" />
    <glyph glyph-name="V" unicode="V" 
d="M133 0l-72 714h187l29 -529h2l240 529h196l-370 -714h-212z" />
    <glyph glyph-name="W" unicode="W" horiz-adv-x="944" 
d="M113 0l-50 714h187l-5 -520h2l210 520h170v-520h2l202 520h191l-339 -714h-187v483h-2l-194 -483h-187z" />
    <glyph glyph-name="X" unicode="X" horiz-adv-x="704" 
d="M-78 0l333 377l-167 337h205l85 -220l164 220h224l-297 -340l176 -374h-211l-95 237l-186 -237h-231z" />
    <glyph glyph-name="Y" unicode="Y" horiz-adv-x="648" 
d="M157 0l57 270l-165 444h192l85 -297l199 297h223l-350 -444l-57 -270h-184z" />
    <glyph glyph-name="Z" unicode="Z" horiz-adv-x="667" 
d="M-43 0l31 160l447 394h-348l33 160h584l-32 -160l-460 -394h392l-32 -160h-615z" />
    <glyph glyph-name="bracketleft" unicode="[" horiz-adv-x="370" 
d="M-39 -174l189 903h293l-27 -144h-141l-129 -615h136l-27 -144h-294z" />
    <glyph glyph-name="backslash" unicode="\" horiz-adv-x="407" 
d="M88 729l395 -744h-164l-395 744h164z" />
    <glyph glyph-name="bracketright" unicode="]" horiz-adv-x="370" 
d="M380 729l-189 -903h-293l27 144h141l129 615h-136l27 144h294z" />
    <glyph glyph-name="asciicircum" unicode="^" horiz-adv-x="600" 
d="M206 332h-159l162 365h182l162 -365h-160l-93 238z" />
    <glyph glyph-name="underscore" unicode="_" horiz-adv-x="500" 
d="M500 -125h-500v50h500v-50z" />
    <glyph glyph-name="grave" unicode="`" horiz-adv-x="259" 
d="M-43 714h177l99 -146h-114z" />
    <glyph glyph-name="a" unicode="a" horiz-adv-x="593" 
d="M161 144q0 -54 69 -54q110 0 129 148h-1q-13 -11 -48.5 -16t-67 -7t-56.5 -19.5t-25 -51.5zM220 359h-161q35 175 254 175q237 0 237 -136q0 -57 -51 -261q-16 -64 -16 -97q0 -19 7 -40h-167q-4 25 -4 50h-2q-45 -65 -157 -65q-169 0 -169 146q0 40 14.5 70.5t37 48.5
t58 30.5t69 18t78.5 8.5q5 0 19.5 0.5t21.5 1t20.5 2t20.5 3.5l17.5 5t16 8t11.5 11.5t8.5 15.5t2.5 20q0 50 -72 50q-85 0 -94 -65z" />
    <glyph glyph-name="b" unicode="b" 
d="M417 306q0 46 -21.5 72t-63.5 26q-48 0 -80 -33t-43.5 -74.5t-11.5 -87.5q0 -42 22 -68t63 -26q44 0 76.5 33t45.5 75t13 83zM-17 0l149 714h170l-52 -249h2q54 69 152 69q90 0 136.5 -62t46.5 -156q0 -84 -30.5 -158.5t-94 -123.5t-148.5 -49q-60 0 -96 20.5t-56 67.5
h-2l-15 -73h-162z" />
    <glyph glyph-name="c" unicode="c" horiz-adv-x="574" 
d="M551 330h-165q1 37 -21 59q-18 18 -55 20q-47 2 -78 -28t-42 -69t-11 -83q0 -57 22 -88t64 -31q77 0 99 88h165q-23 -108 -93.5 -160.5t-177.5 -52.5q-113 0 -181 57.5t-68 168.5q0 140 85 231.5t224 91.5q103 0 167.5 -52t65.5 -152z" />
    <glyph glyph-name="d" unicode="d" 
d="M265 115q44 0 75.5 33t44 75t12.5 85q0 44 -23 70t-64 26q-45 0 -76 -31t-43 -72t-12 -85q0 -45 21 -73t65 -28zM653 714l-149 -714h-165l14 64h-2q-50 -79 -151 -79q-97 0 -144 60.5t-47 160.5q0 86 30.5 159.5t95 121t150.5 47.5q113 0 142 -84h2l54 264h170z" />
    <glyph glyph-name="e" unicode="e" horiz-adv-x="611" 
d="M549 218h-374q-2 -20 -2 -35q8 -83 92 -83q78 0 99 57h166q-57 -172 -272 -172q-113 0 -181 57.5t-68 168.5q0 140 85 231.5t224 91.5q105 0 171 -59t66 -168q0 -45 -6 -89zM187 313h204q4 45 -17 75.5t-62 30.5q-96 0 -125 -106z" />
    <glyph glyph-name="f" unicode="f" horiz-adv-x="370" 
d="M14 0l86 409h-83l23 110h83q22 88 34 112q45 88 176 88q60 0 108 -8l-24 -120q-3 0 -19.5 1.5t-25.5 1.5q-22 0 -37 -5.5t-23.5 -17.5t-12 -23t-6.5 -29h99l-23 -110h-99l-86 -409h-170z" />
    <glyph glyph-name="g" unicode="g" horiz-adv-x="611" 
d="M-24 -15h170q0 -29 19 -46q19 -16 49 -16q19 0 35 4t27 9.5t20 17t14 20.5t10.5 25.5t7.5 27t6.5 30.5t6.5 30h-2q-18 -30 -57 -46t-79 -16q-88 0 -141.5 56t-53.5 144q0 77 27.5 146t86.5 116t137 47q125 0 159 -88h2l14 73h163l-87 -419q-34 -164 -98.5 -223
t-207.5 -59q-45 0 -83.5 7.5t-73 25.5t-53.5 52t-18 82zM261 140q59 0 91.5 46.5t32.5 111.5q0 48 -20.5 77t-60.5 29q-61 0 -93.5 -49t-32.5 -114q0 -45 20 -73t63 -28z" />
    <glyph glyph-name="h" unicode="h" 
d="M-10 0l151 714h170l-55 -256l2 -2q20 30 67 54t110 24q69 0 109 -39.5t40 -106.5q0 -34 -18 -112l-62 -276h-170l59 275q10 48 10 66q0 30 -17 46.5t-45 16.5q-15 0 -28.5 -3.5t-24 -7t-20 -13.5t-15.5 -15.5t-12.5 -21t-9.5 -21.5t-8 -25.5t-6 -24.5t-5.5 -27t-5.5 -25
l-46 -220h-170z" />
    <glyph glyph-name="i" unicode="i" horiz-adv-x="296" 
d="M-10 0l108 519h170l-108 -519h-170zM309 714l-27 -130h-170l27 130h170z" />
    <glyph glyph-name="j" unicode="j" horiz-adv-x="296" 
d="M-134 -174l29 130h39q31 0 43 17t20 56l102 490h169l-100 -482q-26 -123 -69 -167t-151 -44h-82zM309 714l-27 -130h-170l27 130h170z" />
    <glyph glyph-name="k" unicode="k" horiz-adv-x="574" 
d="M-10 0l150 714h170l-78 -370h2l177 175h210l-235 -204l130 -315h-185l-78 209l-60 -50l-33 -159h-170z" />
    <glyph glyph-name="l" unicode="l" horiz-adv-x="296" 
d="M-10 0l149 714h170l-149 -714h-170z" />
    <glyph glyph-name="m" unicode="m" horiz-adv-x="944" 
d="M-10 0l108 519h164l-14 -67h2q29 37 75 59.5t96 22.5q116 0 132 -89q73 89 172 89q76 0 121.5 -34t45.5 -104q0 -39 -14 -104l-66 -292h-170l58 276q11 42 11 73q0 55 -57 55q-84 0 -110 -128l-58 -276h-170l56 268q12 50 12 81q0 24 -14 39.5t-40 15.5q-45 0 -70 -26.5
t-37 -80.5l-63 -297h-170z" />
    <glyph glyph-name="n" unicode="n" 
d="M-10 0l108 519h170l-14 -63h2q22 31 69 54.5t110 23.5q69 0 109 -39.5t40 -106.5q0 -34 -18 -112l-62 -276h-170l59 275q10 48 10 66q0 30 -17 46.5t-45 16.5q-15 0 -28.5 -3.5t-24 -7t-20 -13.5t-15.5 -15.5t-12.5 -21t-9.5 -21.5t-8 -25.5t-6 -24.5t-5.5 -27t-5.5 -25
l-46 -220h-170z" />
    <glyph glyph-name="o" unicode="o" horiz-adv-x="611" 
d="M9 211q0 140 85 231.5t224 91.5q110 0 177.5 -60t67.5 -169q0 -141 -83 -230.5t-222 -89.5q-113 0 -181 57.5t-68 168.5zM179 217q0 -48 20 -77.5t63 -29.5q66 0 98.5 58t32.5 130q0 111 -86 111q-43 0 -73.5 -34.5t-42.5 -76.5t-12 -81z" />
    <glyph glyph-name="p" unicode="p" 
d="M-53 -174l144 693h165l-12 -61h2q59 76 155 76q93 0 139 -64t46 -161q0 -80 -29 -152t-91.5 -122t-146.5 -50q-109 0 -151 82h-2l-49 -241h-170zM287 115q64 0 96.5 58t32.5 127q0 104 -89 104q-61 0 -94 -60t-33 -128q0 -45 21.5 -73t65.5 -28z" />
    <glyph glyph-name="q" unicode="q" 
d="M610 519l-145 -693h-170l48 230h-2q-59 -71 -151 -71q-88 0 -134.5 57.5t-46.5 155.5q0 63 18 122t51 107.5t87 77.5t120 29q59 0 93 -22t53 -68h2l15 75h162zM264 115q64 0 98.5 58t34.5 126q0 45 -22 75t-65 30q-44 0 -75.5 -32.5t-43.5 -74t-12 -83.5q0 -44 21 -71.5
t64 -27.5z" />
    <glyph glyph-name="r" unicode="r" horiz-adv-x="426" 
d="M-10 0l108 519h165l-19 -85h2q27 47 69.5 73.5t93.5 26.5q38 0 57 -9l-33 -150q-38 10 -77 10q-66 0 -99 -37.5t-47 -109.5l-50 -238h-170z" />
    <glyph glyph-name="s" unicode="s" horiz-adv-x="537" 
d="M-11 170h156q-1 -32 19 -54q22 -21 67 -21q28 0 52 12.5t24 40.5q0 10 -2 17t-8.5 12.5t-11.5 9.5t-18.5 8t-22 6t-29 7t-32.5 8q-33 7 -55.5 16t-44 24.5t-32.5 41t-11 60.5q0 50 23 86t61.5 54.5t79.5 27t87 8.5q44 0 80.5 -8t69 -26t50 -52t14.5 -82h-154q2 29 -13 45
q-15 18 -51 18q-31 0 -54 -12t-23 -37q0 -8 3 -14t10 -11t13 -8.5t19 -7.5t21 -6t25 -6t25 -6q41 -10 65 -19t46 -25.5t31 -41.5t9 -62q0 -188 -266 -188q-215 0 -222 185z" />
    <glyph glyph-name="t" unicode="t" horiz-adv-x="389" 
d="M331 675l-32 -156h107l-23 -110h-108l-41 -196q-9 -41 -9 -62q0 -17 13.5 -22t39.5 -5q8 0 17 0.5t19.5 1.5t16.5 1l-26 -127q-12 -1 -32 -2.5t-36 -2.5t-31 -1q-34 0 -59 3t-50 12t-38.5 28t-13.5 47q0 43 20 137l40 188h-86l23 110h86l33 156h170z" />
    <glyph glyph-name="u" unicode="u" 
d="M602 519l-110 -519h-163l15 71h-2q-56 -86 -170 -86q-49 0 -83 16.5t-48 42t-19 44t-5 33.5q0 39 10 83l67 315h170l-59 -288q-7 -34 -7 -62q0 -24 14 -39t42 -15q94 0 118 123l60 281h170z" />
    <glyph glyph-name="v" unicode="v" horiz-adv-x="537" 
d="M91 0l-64 519h172l21 -366h2l169 366h178l-280 -519h-198z" />
    <glyph glyph-name="w" unicode="w" horiz-adv-x="833" 
d="M90 0l-55 519h169l13 -360h2l149 360h164l11 -360h2l151 360h179l-270 -519h-176l-11 352h-2l-150 -352h-176z" />
    <glyph glyph-name="x" unicode="x" horiz-adv-x="537" 
d="M-68 0l235 275l-118 244h176l49 -134l95 134h189l-212 -252l131 -267h-175l-65 153l-117 -153h-188z" />
    <glyph glyph-name="y" unicode="y" horiz-adv-x="537" 
d="M-52 -168l28 128q29 -4 65 -4q15 0 25 2t18.5 9.5t11 10t11 17.5t10.5 18l-96 506h173l39 -365h2l155 365h178l-264 -495q-57 -104 -82 -133q-46 -53 -130 -62q-27 -3 -61 -3q-27 0 -83 6z" />
    <glyph glyph-name="z" unicode="z" horiz-adv-x="537" 
d="M-42 0l28 125l314 269h-243l26 125h451l-26 -125l-315 -269h282l-27 -125h-490z" />
    <glyph glyph-name="braceleft" unicode="{" horiz-adv-x="370" 
d="M434 729l-25 -120h-32q-25 0 -41.5 -13t-21 -24t-9.5 -28l-34 -161q-8 -39 -34 -64t-49 -32t-49 -9v-2q67 -8 83 -34q7 -11 7 -25q0 -31 -8 -66l-26 -124q-9 -43 -9 -56q0 -25 46 -25h39l-25 -120h-112q-48 0 -78.5 23t-30.5 70q0 24 5 48l33 168q5 23 5 41q0 41 -83 41
l25 120q18 0 37.5 3t43.5 18t29 40l39 188q29 143 163 143h112z" />
    <glyph glyph-name="bar" unicode="|" horiz-adv-x="222" 
d="M39 -214v1000h144v-1000h-144z" />
    <glyph glyph-name="braceright" unicode="}" horiz-adv-x="370" 
d="M-95 -174l25 120h32q25 0 41.5 13t21 24t9.5 28l34 161q19 96 132 104v2q-17 2 -26 4t-27 8t-27.5 18t-9.5 30q0 31 8 66l26 124q9 43 9 56q0 25 -46 25h-39l25 120h112q48 0 78.5 -23t30.5 -70q0 -24 -5 -48l-33 -168q-5 -23 -5 -42q0 -41 83 -41l-25 -120
q-18 0 -37.5 -3t-43.5 -18t-29 -40l-39 -187q-29 -143 -163 -143h-112z" />
    <glyph glyph-name="asciitilde" unicode="~" horiz-adv-x="600" 
d="M495 363l36 -130q-20 -27 -33 -42t-38 -29.5t-54 -14.5q-42 0 -102 33q-62 35 -115 35q-51 0 -84 -72l-36 130q45 86 125 86q39 0 111 -32q7 -3 21.5 -9.5t23 -10t20 -8t20.5 -6.5t17 -2q19 0 36.5 12t27 24.5t24.5 35.5z" />
    <glyph glyph-name="exclamdown" unicode="&#xa1;" horiz-adv-x="315" 
d="M286 534l-37 -176h-175l37 176h175zM-40 -174l37 179l111 298h83l-17 -298l-38 -179h-176z" />
    <glyph glyph-name="cent" unicode="&#xa2;" 
d="M252 116l61 293q-49 -10 -76 -52q-33 -51 -33 -128q0 -89 48 -113zM203 -116l22 105q-90 13 -140.5 73t-50.5 158q0 143 84 228.5t221 85.5l17 79h57l-18 -83q85 -13 132.5 -64.5t48.5 -136.5h-165q2 59 -42 76l-62 -295q62 8 82 90h165q-45 -215 -274 -215l-21 -101h-56
z" />
    <glyph glyph-name="sterling" unicode="&#xa3;" 
d="M618 485h-162q4 22 4 31q0 33 -22 51t-61 18q-41 0 -66 -25t-25 -66q0 -27 17 -91h135l-24 -105h-103q10 -85 -83 -161v-2q26 14 73 14q22 0 63.5 -10t62.5 -10q47 0 94 35l45 -122q-43 -33 -79.5 -45t-90.5 -12q-36 0 -107 19.5t-108 19.5q-57 0 -114 -35l-48 106
q67 40 99 87t23 116h-100l22 105h64q-22 54 -22 103q0 67 42.5 119.5t104 78t126.5 25.5q110 0 178 -49.5t68 -144.5q0 -16 -6 -50z" />
    <glyph glyph-name="currency" unicode="&#xa4;" 
d="M118 87l-60 60l44 45q-52 69 -52 157q0 83 49 154l-45 44l60 60l45 -44q69 51 156 51t156 -51l43 44l60 -60l-44 -44q50 -69 50 -154t-50 -154l44 -44l-60 -60l-44 44q-67 -51 -155 -51q-83 0 -152 48zM194 349q0 -60 35 -97.5t86 -37.5t86 37.5t35 97.5t-35 97.5
t-86 37.5t-86 -37.5t-35 -97.5z" />
    <glyph glyph-name="yen" unicode="&#xa5;" 
d="M153 0l27 131h-176l22 105h176l6 31l-11 41h-156l21 105h104l-87 301h186l65 -301h2l191 301h186l-212 -301h103l-21 -105h-156l-29 -41l-6 -31h176l-22 -105h-176l-27 -131h-186z" />
    <glyph glyph-name="brokenbar" unicode="&#xa6;" horiz-adv-x="222" 
d="M39 -89v250h144v-250h-144zM183 661v-250h-144v250h144z" />
    <glyph glyph-name="section" unicode="&#xa7;" 
d="M20 23h148q-1 -31 17 -54q21 -27 59 -27q76 0 76 58q0 27 -19.5 47.5t-56.5 43.5l-126 82q-82 52 -82 141q0 60 40 103t99 48q-28 37 -28 84q0 88 71 134t164 46q87 0 145.5 -39t58.5 -113q0 -28 1 -43h-146q1 6 1 19q0 21 -16 35q-18 16 -49 16q-29 0 -49.5 -15.5
t-20.5 -43.5q0 -10 3 -18t6.5 -13.5t12.5 -12.5t16 -11t23 -13.5t27 -15.5l97 -59q90 -56 90 -151q0 -56 -38 -100.5t-97 -53.5q33 -30 33 -92q0 -54 -25.5 -93.5t-66 -58.5t-79.5 -27.5t-77 -8.5q-93 0 -158 55.5t-54 150.5zM438 227q0 36 -52 72l-79 55q-3 2 -10.5 7.5
t-10.5 7.5t-9.5 6t-11 5.5t-11 3t-13.5 1.5q-27 0 -44 -13.5t-17 -38.5q0 -35 42 -63l102 -71q9 -5 19 -13t18 -11t22 -3q22 0 38.5 16.5t16.5 38.5z" />
    <glyph glyph-name="dieresis" unicode="&#xa8;" horiz-adv-x="259" 
d="M144 573h-154l27 130h154zM357 573h-154l27 130h154z" />
    <glyph glyph-name="copyright" unicode="&#xa9;" horiz-adv-x="800" 
d="M400 -15q-102 0 -188.5 42.5t-142 129t-55.5 200.5t55.5 200.5t142 129t188.5 42.5q75 0 144.5 -25.5t123.5 -71.5t86 -117.5t32 -157.5t-32 -157.5t-86 -117.5t-123.5 -71.5t-144.5 -25.5zM400 80q108 0 184.5 78.5t76.5 198.5t-76.5 198.5t-184.5 78.5
q-110 0 -185.5 -78.5t-75.5 -198.5t75.5 -198.5t185.5 -78.5zM499 303h94q-10 -75 -60 -116t-118 -41q-93 0 -150.5 61t-57.5 153q0 94 56 154.5t150 60.5q69 0 117 -40t59 -113h-90q-12 58 -86 58q-42 0 -66.5 -32t-24.5 -86q0 -52 26.5 -86.5t66.5 -34.5q80 0 84 62z" />
    <glyph glyph-name="ordfeminine" unicode="&#xaa;" horiz-adv-x="376" 
d="M276 520q-18 -6 -72 -17q-54 -10 -54 -40q0 -31 41 -31q66 0 81 69zM381 362h-125q-3 13 -1 29q-72 -38 -123 -38q-107 0 -107 86q0 35 24.5 66t62.5 41q26 8 80.5 15t65.5 9q34 7 34 29q0 13 -13.5 20.5t-32.5 7.5q-48 0 -62 -35h-118q14 66 71 93q46 21 127 21
q115 0 143 -41q12 -17 12 -43q0 -14 -6 -45t-15.5 -75.5t-10.5 -47.5q-11 -58 -6 -92z" />
    <glyph glyph-name="guillemotleft" unicode="&#xab;" horiz-adv-x="444" 
d="M141 58l-131 140l31 148l186 122l-29 -139l-106 -70l74 -80zM338 58l-131 140l31 148l186 122l-29 -139l-106 -70l74 -80z" />
    <glyph glyph-name="logicalnot" unicode="&#xac;" horiz-adv-x="600" 
d="M408 120v185h-360v144h504v-329h-144z" />
    <glyph glyph-name="registered" unicode="&#xae;" horiz-adv-x="800" 
d="M343 324v-168h-95v403h151q93 0 132 -25t39 -88q0 -61 -29.5 -87.5t-85.5 -28.5l103 -174h-95l-92 168h-28zM343 394h74q29 0 43.5 11t14.5 41q0 43 -78 43h-54v-95zM400 -15q-102 0 -188.5 42.5t-142 129t-55.5 200.5t55.5 200.5t142 129t188.5 42.5q75 0 144.5 -25.5
t123.5 -71.5t86 -117.5t32 -157.5t-32 -157.5t-86 -117.5t-123.5 -71.5t-144.5 -25.5zM400 80q108 0 184.5 78.5t76.5 198.5t-76.5 198.5t-184.5 78.5q-110 0 -185.5 -78.5t-75.5 -198.5t75.5 -198.5t185.5 -78.5z" />
    <glyph glyph-name="macron" unicode="&#xaf;" horiz-adv-x="259" 
d="M372 600h-381l16 79h381z" />
    <glyph glyph-name="degree" unicode="&#xb0;" horiz-adv-x="400" 
d="M67 546q0 66 47 113t113 47t113 -47t47 -113t-47 -113t-113 -47t-113 47t-47 113zM227 636q-36 0 -58.5 -26t-22.5 -64t22.5 -64t58.5 -26t58.5 26t22.5 64t-22.5 64t-58.5 26z" />
    <glyph glyph-name="plusminus" unicode="&#xb1;" horiz-adv-x="600" 
d="M228 417v101h144v-101h180v-144h-180v-101h-144v101h-180v144h180zM48 -12v144h504v-144h-504z" />
    <glyph glyph-name="twosuperior" unicode="&#xb2;" horiz-adv-x="378" 
d="M357 278h-365q20 91 101 146q27 18 134 73q15 8 24 13.5t22.5 15.5t20 22t6.5 25q0 19 -13.5 28.5t-33.5 9.5q-66 0 -85 -84h-125q17 84 75 130q62 49 154 49q63 0 108 -25t45 -86q0 -84 -101 -142q-11 -6 -45 -22t-59 -30.5t-37 -27.5h194z" />
    <glyph glyph-name="threesuperior" unicode="&#xb3;" horiz-adv-x="378" 
d="M6 434h123q-4 -18 -4 -27q0 -21 18 -32t45 -11q30 0 54.5 12.5t24.5 37.5q0 42 -67 42q-19 0 -29 -1l17 82q5 0 15 -0.5t14 -0.5q27 0 51 9t24 28q0 17 -14 27.5t-37 10.5q-28 0 -48.5 -15.5t-24.5 -40.5h-125q18 72 72 111q56 40 145 40q27 0 51.5 -4t50 -14.5t40.5 -32
t15 -53.5q0 -37 -22.5 -65.5t-63.5 -34.5v-2q61 -8 61 -78q0 -77 -64.5 -115t-158.5 -38q-31 0 -58.5 5t-53.5 16.5t-41.5 34.5t-15.5 55q0 21 6 54z" />
    <glyph glyph-name="acute" unicode="&#xb4;" horiz-adv-x="259" 
d="M119 568l108 146h185l-179 -146h-114z" />
    <glyph glyph-name="mu" unicode="&#xb5;" 
d="M610 519l-110 -519h-163l15 71h-2q-23 -36 -63 -61t-69 -25q-34 0 -53 22l-38 -181h-170l145 693h170l-59 -288q-7 -34 -7 -62q0 -24 14 -39t42 -15q94 0 118 123l60 281h170z" />
    <glyph glyph-name="paragraph" unicode="&#xb6;" horiz-adv-x="620" 
d="M141 -169l111 534q-35 0 -65.5 5.5t-61 18t-48 38t-17.5 61.5q0 121 79 173.5t208 52.5h314l-183 -883h-120l165 793h-97l-165 -793h-120z" />
    <glyph glyph-name="periodcentered" unicode="&#xb7;" horiz-adv-x="315" 
d="M65 281q0 38 27.5 65.5t65.5 27.5t65.5 -27.5t27.5 -65.5t-27.5 -65.5t-65.5 -27.5t-65.5 27.5t-27.5 65.5z" />
    <glyph glyph-name="cedilla" unicode="&#xb8;" horiz-adv-x="259" 
d="M-73 -198l25 44q6 -2 19 -7t19.5 -7t17.5 -4t22 -2q19 0 34.5 9t15.5 26q0 15 -11.5 23t-27.5 8q-20 0 -35 -7l-22 25l68 90h57l-52 -63v-2q10 3 31 3q34 0 58.5 -21t24.5 -54q0 -47 -38.5 -68t-89.5 -21q-47 0 -116 28z" />
    <glyph glyph-name="onesuperior" unicode="&#xb9;" horiz-adv-x="378" 
d="M268 278h-125l51 245h-109l19 90q54 -1 96.5 19.5t54.5 64.5h100z" />
    <glyph glyph-name="ordmasculine" unicode="&#xba;" horiz-adv-x="387" 
d="M272 706q70 0 116.5 -32.5t46.5 -98.5q0 -100 -68.5 -161t-168.5 -61q-70 0 -116 33.5t-46 100.5q0 97 69 158t167 61zM252 611q-41 0 -66 -32t-25 -73q0 -58 57 -58q41 0 66.5 32.5t25.5 71.5q0 26 -14.5 42.5t-43.5 16.5z" />
    <glyph glyph-name="guillemotright" unicode="&#xbb;" horiz-adv-x="444" 
d="M79 468l131 -140l-31 -148l-186 -122l29 139l106 70l-74 80zM276 468l131 -140l-31 -148l-186 -122l29 139l106 70l-74 80z" />
    <glyph glyph-name="onequarter" unicode="&#xbc;" horiz-adv-x="945" 
d="M269 -27h-103l393 751h103zM224 278h-125l51 245h-109l19 90q54 -1 96.5 19.5t54.5 64.5h100zM800 0h-125l18 87h-206l19 88l252 244h129l-49 -237h62l-20 -95h-62zM714 182l28 137h-2l-142 -137h116z" />
    <glyph glyph-name="onehalf" unicode="&#xbd;" horiz-adv-x="945" 
d="M278 -27h-103l393 751h103zM848 0h-365q20 91 101 146q27 18 134 73q15 8 24 13.5t22.5 15.5t20 22t6.5 25q0 19 -13.5 28.5t-33.5 9.5q-66 0 -85 -84h-125q17 84 75 130q62 49 154 49q63 0 108 -25t45 -86q0 -84 -101 -142q-11 -6 -45 -22t-59 -30.5t-37 -27.5h194z
M238 278h-125l51 245h-109l19 90q54 -1 96.5 19.5t54.5 64.5h100z" />
    <glyph glyph-name="threequarters" unicode="&#xbe;" horiz-adv-x="945" 
d="M349 -27h-103l393 751h103zM815 0h-125l18 87h-206l19 88l252 244h129l-49 -237h62l-20 -95h-62zM729 182l28 137h-2l-142 -137h116zM9 434h123q-4 -18 -4 -27q0 -21 18 -32t45 -11q30 0 54.5 12.5t24.5 37.5q0 42 -67 42q-19 0 -29 -1l17 82q5 0 15 -0.5t14 -0.5
q27 0 51 9t24 28q0 17 -14 27.5t-37 10.5q-28 0 -48.5 -15.5t-24.5 -40.5h-125q18 72 72 111q56 40 145 40q27 0 51.5 -4t50 -14.5t40.5 -32t15 -53.5q0 -37 -22.5 -65.5t-63.5 -34.5v-2q61 -8 61 -78q0 -77 -64.5 -115t-158.5 -38q-31 0 -58.5 5t-53.5 16.5t-41.5 34.5
t-15.5 55q0 21 6 54z" />
    <glyph glyph-name="questiondown" unicode="&#xbf;" horiz-adv-x="574" 
d="M308 47h170q-2 -112 -77.5 -174t-210.5 -62q-109 0 -169 46.5t-60 132.5q0 26 4 47.5t10 37.5t18 31t21 24t27 20.5t29 17.5t33.5 17.5t33.5 17.5q67 36 71 97h158q-9 -77 -43 -118t-121 -86q-34 -17 -52.5 -39t-18.5 -58q0 -28 20 -43t53 -15q96 0 104 106zM424 534
l-37 -176h-175l37 176h175z" />
    <glyph glyph-name="Agrave" unicode="&#xc0;" horiz-adv-x="704" 
d="M-77 0l417 714h188l117 -714h-187l-17 128h-251l-72 -128h-195zM396 523l-134 -257h163l-27 257h-2zM215 909h177l99 -146h-114z" />
    <glyph glyph-name="Aacute" unicode="&#xc1;" horiz-adv-x="704" 
d="M-77 0l417 714h188l117 -714h-187l-17 128h-251l-72 -128h-195zM396 523l-134 -257h163l-27 257h-2zM377 763l108 146h185l-179 -146h-114z" />
    <glyph glyph-name="Acircumflex" unicode="&#xc2;" horiz-adv-x="704" 
d="M-77 0l417 714h188l117 -714h-187l-17 128h-251l-72 -128h-195zM396 523l-134 -257h163l-27 257h-2zM367 763h-128l145 146h146l83 -146h-125l-45 82z" />
    <glyph glyph-name="Atilde" unicode="&#xc3;" horiz-adv-x="704" 
d="M-77 0l417 714h188l117 -714h-187l-17 128h-251l-72 -128h-195zM396 523l-134 -257h163l-27 257h-2zM560 909h78q-27 -133 -117 -133q-26 0 -66 14l-42 14q-27 11 -42 11q-13 0 -25 -11.5t-14 -29.5h-78q6 51 39 91.5t82 40.5q20 0 55 -13l45 -17q25 -11 48 -11
q25 0 37 44z" />
    <glyph glyph-name="Adieresis" unicode="&#xc4;" horiz-adv-x="704" 
d="M-77 0l417 714h188l117 -714h-187l-17 128h-251l-72 -128h-195zM396 523l-134 -257h163l-27 257h-2zM402 768h-154l27 130h154zM615 768h-154l27 130h154z" />
    <glyph glyph-name="Aring" unicode="&#xc5;" horiz-adv-x="704" 
d="M-77 0l417 714h188l117 -714h-187l-17 128h-251l-72 -128h-195zM396 523l-134 -257h163l-27 257h-2zM446 793q22 0 37 15.5t15 36.5q0 22 -15 37t-37 15t-37 -15t-15 -37q0 -21 15 -36.5t37 -15.5zM446 738q-44 0 -75.5 32t-31.5 75q0 44 31.5 75.5t75.5 31.5t75.5 -31
t31.5 -76q0 -44 -31.5 -75.5t-75.5 -31.5z" />
    <glyph glyph-name="AE" unicode="&#xc6;" horiz-adv-x="1019" 
d="M-104 0l492 714h656l-34 -160h-330l-24 -114h307l-30 -144h-307l-28 -136h336l-34 -160h-519l27 128h-213l-84 -128h-215zM437 266l60 288h-22l-189 -288h151z" />
    <glyph glyph-name="Ccedilla" unicode="&#xc7;" horiz-adv-x="741" 
d="M506 264h186q-59 -275 -355 -278l-40 -49v-2q10 3 31 3q34 0 58.5 -21t24.5 -54q0 -47 -38.5 -68t-89.5 -21q-47 0 -116 28l25 44q6 -2 19 -7t19.5 -7t17.5 -4t22 -2q19 0 34.5 9t15.5 26q0 15 -11.5 23t-27.5 8q-20 0 -35 -7l-22 25l59 78q-46 6 -86 24.5t-78 53.5
t-60 97t-22 144q0 116 44.5 211t133 153t205.5 58q140 0 219.5 -68t78.5 -204h-186q6 52 -23 85.5t-92 33.5q-50 0 -89.5 -27t-61 -69.5t-32.5 -88.5t-11 -91q0 -77 29 -119.5t103 -42.5q58 0 99.5 35.5t51.5 90.5z" />
    <glyph glyph-name="Egrave" unicode="&#xc8;" horiz-adv-x="685" 
d="M-8 0l148 714h570l-34 -160h-384l-23 -114h354l-30 -144h-354l-28 -136h387l-34 -160h-572zM205 909h177l99 -146h-114z" />
    <glyph glyph-name="Eacute" unicode="&#xc9;" horiz-adv-x="685" 
d="M-8 0l148 714h570l-34 -160h-384l-23 -114h354l-30 -144h-354l-28 -136h387l-34 -160h-572zM367 763l108 146h185l-179 -146h-114z" />
    <glyph glyph-name="Ecircumflex" unicode="&#xca;" horiz-adv-x="685" 
d="M-8 0l148 714h570l-34 -160h-384l-23 -114h354l-30 -144h-354l-28 -136h387l-34 -160h-572zM357 763h-128l145 146h146l83 -146h-125l-45 82z" />
    <glyph glyph-name="Edieresis" unicode="&#xcb;" horiz-adv-x="685" 
d="M-8 0l148 714h570l-34 -160h-384l-23 -114h354l-30 -144h-354l-28 -136h387l-34 -160h-572zM392 768h-154l27 130h154zM605 768h-154l27 130h154z" />
    <glyph glyph-name="Igrave" unicode="&#xcc;" horiz-adv-x="315" 
d="M-8 0l149 714h186l-149 -714h-186zM20 909h177l99 -146h-114z" />
    <glyph glyph-name="Iacute" unicode="&#xcd;" horiz-adv-x="315" 
d="M-8 0l149 714h186l-149 -714h-186zM182 763l108 146h185l-179 -146h-114z" />
    <glyph glyph-name="Icircumflex" unicode="&#xce;" horiz-adv-x="315" 
d="M-8 0l149 714h186l-149 -714h-186zM172 763h-128l145 146h146l83 -146h-125l-45 82z" />
    <glyph glyph-name="Idieresis" unicode="&#xcf;" horiz-adv-x="315" 
d="M-8 0l149 714h186l-149 -714h-186zM207 768h-154l27 130h154zM420 768h-154l27 130h154z" />
    <glyph glyph-name="Eth" unicode="&#xd0;" horiz-adv-x="759" 
d="M-8 0l62 296h-102l32 144h101l58 274h268q147 0 232.5 -72.5t85.5 -229.5q0 -177 -108 -294.5t-310 -117.5h-319zM295 554l-24 -114h137l-29 -144h-139l-28 -136h123q57 0 100 23.5t65 61t32.5 76t10.5 76.5q0 157 -141 157h-107z" />
    <glyph glyph-name="Ntilde" unicode="&#xd1;" horiz-adv-x="741" 
d="M-16 0l149 714h191l167 -467h2l89 467h180l-149 -714h-191l-165 467h-2l-91 -467h-180zM553 909h78q-27 -133 -117 -133q-26 0 -66 14l-42 14q-28 11 -42 11q-13 0 -25 -11.5t-14 -29.5h-78q6 51 39 91.5t82 40.5q20 0 55 -13l45 -17q25 -11 48 -11q25 0 37 44z" />
    <glyph glyph-name="Ograve" unicode="&#xd2;" horiz-adv-x="778" 
d="M33 301q0 182 110 305t290 123q42 0 81 -6.5t84 -26.5t77.5 -52t54 -88t21.5 -129q0 -194 -108.5 -318t-295.5 -124q-149 0 -231.5 83.5t-82.5 232.5zM219 300q0 -73 36 -117.5t107 -44.5q63 0 111 45.5t70 106.5t22 121q0 82 -32.5 123.5t-105.5 41.5q-68 0 -117 -45.5
t-70 -106.5t-21 -124zM217 909h177l99 -146h-114z" />
    <glyph glyph-name="Oacute" unicode="&#xd3;" horiz-adv-x="778" 
d="M33 301q0 182 110 305t290 123q42 0 81 -6.5t84 -26.5t77.5 -52t54 -88t21.5 -129q0 -194 -108.5 -318t-295.5 -124q-149 0 -231.5 83.5t-82.5 232.5zM219 300q0 -73 36 -117.5t107 -44.5q63 0 111 45.5t70 106.5t22 121q0 82 -32.5 123.5t-105.5 41.5q-68 0 -117 -45.5
t-70 -106.5t-21 -124zM379 763l108 146h185l-179 -146h-114z" />
    <glyph glyph-name="Ocircumflex" unicode="&#xd4;" horiz-adv-x="778" 
d="M33 301q0 182 110 305t290 123q42 0 81 -6.5t84 -26.5t77.5 -52t54 -88t21.5 -129q0 -194 -108.5 -318t-295.5 -124q-149 0 -231.5 83.5t-82.5 232.5zM219 300q0 -73 36 -117.5t107 -44.5q63 0 111 45.5t70 106.5t22 121q0 82 -32.5 123.5t-105.5 41.5q-68 0 -117 -45.5
t-70 -106.5t-21 -124zM389 763h-128l145 146h146l83 -146h-125l-45 82z" />
    <glyph glyph-name="Otilde" unicode="&#xd5;" horiz-adv-x="778" 
d="M33 301q0 182 110 305t290 123q42 0 81 -6.5t84 -26.5t77.5 -52t54 -88t21.5 -129q0 -194 -108.5 -318t-295.5 -124q-149 0 -231.5 83.5t-82.5 232.5zM219 300q0 -73 36 -117.5t107 -44.5q63 0 111 45.5t70 106.5t22 121q0 82 -32.5 123.5t-105.5 41.5q-68 0 -117 -45.5
t-70 -106.5t-21 -124zM562 909h78q-27 -133 -117 -133q-26 0 -66 14l-42 14q-27 11 -42 11q-13 0 -25 -11.5t-14 -29.5h-78q6 51 39 91.5t82 40.5q20 0 55 -13l45 -17q25 -11 48 -11q25 0 37 44z" />
    <glyph glyph-name="Odieresis" unicode="&#xd6;" horiz-adv-x="778" 
d="M33 301q0 182 110 305t290 123q42 0 81 -6.5t84 -26.5t77.5 -52t54 -88t21.5 -129q0 -194 -108.5 -318t-295.5 -124q-149 0 -231.5 83.5t-82.5 232.5zM219 300q0 -73 36 -117.5t107 -44.5q63 0 111 45.5t70 106.5t22 121q0 82 -32.5 123.5t-105.5 41.5q-68 0 -117 -45.5
t-70 -106.5t-21 -124zM404 768h-154l27 130h154zM617 768h-154l27 130h154z" />
    <glyph glyph-name="multiply" unicode="&#xd7;" horiz-adv-x="600" 
d="M198 253l-144 144l102 102l144 -144l144 144l102 -102l-144 -144l144 -144l-102 -102l-144 144l-144 -144l-102 102z" />
    <glyph glyph-name="Oslash" unicode="&#xd8;" horiz-adv-x="778" 
d="M662 655l95 87l46 -51l-96 -88q44 -70 44 -176q0 -194 -108.5 -318t-295.5 -124q-145 0 -226 78l-102 -94l-47 48l107 99q-46 74 -46 185q0 182 110 305t290 123q145 0 229 -74zM560 468l-307 -283q36 -47 109 -47q63 0 111 45.5t70 106.5t22 121q0 36 -5 57zM225 250
l307 284q-31 42 -105 42q-68 0 -117 -45.5t-70 -106.5t-21 -124q0 -28 6 -50z" />
    <glyph glyph-name="Ugrave" unicode="&#xd9;" horiz-adv-x="741" 
d="M762 714l-85 -408q-13 -64 -27.5 -108t-41 -87.5t-62.5 -69t-92.5 -41t-132.5 -15.5q-135 0 -212 59t-77 147q0 56 20 150l81 373h186l-83 -382q-18 -87 -18 -109q0 -40 28.5 -62.5t78.5 -22.5q24 0 43 3.5t34.5 13.5t27 18.5t21 27t15.5 29.5t13 36.5t10 37.5t10 42
l77 368h186zM233 909h177l99 -146h-114z" />
    <glyph glyph-name="Uacute" unicode="&#xda;" horiz-adv-x="741" 
d="M762 714l-85 -408q-13 -64 -27.5 -108t-41 -87.5t-62.5 -69t-92.5 -41t-132.5 -15.5q-135 0 -212 59t-77 147q0 56 20 150l81 373h186l-83 -382q-18 -87 -18 -109q0 -40 28.5 -62.5t78.5 -22.5q24 0 43 3.5t34.5 13.5t27 18.5t21 27t15.5 29.5t13 36.5t10 37.5t10 42
l77 368h186zM360 763l108 146h185l-179 -146h-114z" />
    <glyph glyph-name="Ucircumflex" unicode="&#xdb;" horiz-adv-x="741" 
d="M762 714l-85 -408q-13 -64 -27.5 -108t-41 -87.5t-62.5 -69t-92.5 -41t-132.5 -15.5q-135 0 -212 59t-77 147q0 56 20 150l81 373h186l-83 -382q-18 -87 -18 -109q0 -40 28.5 -62.5t78.5 -22.5q24 0 43 3.5t34.5 13.5t27 18.5t21 27t15.5 29.5t13 36.5t10 37.5t10 42
l77 368h186zM385 763h-128l145 146h146l83 -146h-125l-45 82z" />
    <glyph glyph-name="Udieresis" unicode="&#xdc;" horiz-adv-x="741" 
d="M762 714l-85 -408q-13 -64 -27.5 -108t-41 -87.5t-62.5 -69t-92.5 -41t-132.5 -15.5q-135 0 -212 59t-77 147q0 56 20 150l81 373h186l-83 -382q-18 -87 -18 -109q0 -40 28.5 -62.5t78.5 -22.5q24 0 43 3.5t34.5 13.5t27 18.5t21 27t15.5 29.5t13 36.5t10 37.5t10 42
l77 368h186zM420 768h-154l27 130h154zM633 768h-154l27 130h154z" />
    <glyph glyph-name="Yacute" unicode="&#xdd;" horiz-adv-x="648" 
d="M157 0l57 270l-165 444h192l85 -297l199 297h223l-350 -444l-57 -270h-184zM314 763l108 146h185l-179 -146h-114z" />
    <glyph glyph-name="Thorn" unicode="&#xde;" horiz-adv-x="685" 
d="M-15 0l150 714h187l-18 -92h165q95 0 150.5 -58.5t55.5 -154.5q0 -130 -85.5 -200t-221.5 -70h-166l-31 -139h-186zM272 469l-37 -177h131q62 0 92.5 27t30.5 73q0 47 -29.5 62t-82.5 15h-105z" />
    <glyph glyph-name="germandbls" unicode="&#xdf;" horiz-adv-x="611" 
d="M-10 0l108 515q43 214 264 214q101 0 167 -42t66 -131q0 -63 -36 -105.5t-98 -57.5v-2q108 -25 108 -153q0 -119 -78 -181.5t-192 -62.5q-62 0 -90 6l27 128q26 -4 38 -4q58 0 91.5 35t33.5 94q0 50 -33 70.5t-85 16.5l21 98q51 -7 90 15.5t39 77.5q0 33 -21 50.5
t-55 17.5q-31 0 -50.5 -16.5t-27 -38t-15.5 -60.5l-102 -484h-170z" />
    <glyph glyph-name="agrave" unicode="&#xe0;" horiz-adv-x="593" 
d="M161 144q0 -54 69 -54q110 0 129 148h-1q-13 -11 -48.5 -16t-67 -7t-56.5 -19.5t-25 -51.5zM220 359h-161q35 175 254 175q237 0 237 -136q0 -57 -51 -261q-16 -64 -16 -97q0 -19 7 -40h-167q-4 25 -4 50h-2q-45 -65 -157 -65q-169 0 -169 146q0 40 14.5 70.5t37 48.5
t58 30.5t69 18t78.5 8.5q5 0 19.5 0.5t21.5 1t20.5 2t20.5 3.5l17.5 5t16 8t11.5 11.5t8.5 15.5t2.5 20q0 50 -72 50q-85 0 -94 -65zM124 714h177l99 -146h-114z" />
    <glyph glyph-name="aacute" unicode="&#xe1;" horiz-adv-x="593" 
d="M161 144q0 -54 69 -54q110 0 129 148h-1q-13 -11 -48.5 -16t-67 -7t-56.5 -19.5t-25 -51.5zM220 359h-161q35 175 254 175q237 0 237 -136q0 -57 -51 -261q-16 -64 -16 -97q0 -19 7 -40h-167q-4 25 -4 50h-2q-45 -65 -157 -65q-169 0 -169 146q0 40 14.5 70.5t37 48.5
t58 30.5t69 18t78.5 8.5q5 0 19.5 0.5t21.5 1t20.5 2t20.5 3.5l17.5 5t16 8t11.5 11.5t8.5 15.5t2.5 20q0 50 -72 50q-85 0 -94 -65zM286 568l108 146h185l-179 -146h-114z" />
    <glyph glyph-name="acircumflex" unicode="&#xe2;" horiz-adv-x="593" 
d="M161 144q0 -54 69 -54q110 0 129 148h-1q-13 -11 -48.5 -16t-67 -7t-56.5 -19.5t-25 -51.5zM220 359h-161q35 175 254 175q237 0 237 -136q0 -57 -51 -261q-16 -64 -16 -97q0 -19 7 -40h-167q-4 25 -4 50h-2q-45 -65 -157 -65q-169 0 -169 146q0 40 14.5 70.5t37 48.5
t58 30.5t69 18t78.5 8.5q5 0 19.5 0.5t21.5 1t20.5 2t20.5 3.5l17.5 5t16 8t11.5 11.5t8.5 15.5t2.5 20q0 50 -72 50q-85 0 -94 -65zM291 568h-128l145 146h146l83 -146h-125l-45 82z" />
    <glyph glyph-name="atilde" unicode="&#xe3;" horiz-adv-x="593" 
d="M161 144q0 -54 69 -54q110 0 129 148h-1q-13 -11 -48.5 -16t-67 -7t-56.5 -19.5t-25 -51.5zM220 359h-161q35 175 254 175q237 0 237 -136q0 -57 -51 -261q-16 -64 -16 -97q0 -19 7 -40h-167q-4 25 -4 50h-2q-45 -65 -157 -65q-169 0 -169 146q0 40 14.5 70.5t37 48.5
t58 30.5t69 18t78.5 8.5q5 0 19.5 0.5t21.5 1t20.5 2t20.5 3.5l17.5 5t16 8t11.5 11.5t8.5 15.5t2.5 20q0 50 -72 50q-85 0 -94 -65zM469 714h78q-27 -133 -117 -133q-26 0 -66 14l-42 14q-28 11 -42 11q-13 0 -25 -11.5t-14 -29.5h-78q6 51 39 91.5t82 40.5q20 0 55 -13
l45 -17q25 -11 48 -11q25 0 37 44z" />
    <glyph glyph-name="adieresis" unicode="&#xe4;" horiz-adv-x="593" 
d="M161 144q0 -54 69 -54q110 0 129 148h-1q-13 -11 -48.5 -16t-67 -7t-56.5 -19.5t-25 -51.5zM220 359h-161q35 175 254 175q237 0 237 -136q0 -57 -51 -261q-16 -64 -16 -97q0 -19 7 -40h-167q-4 25 -4 50h-2q-45 -65 -157 -65q-169 0 -169 146q0 40 14.5 70.5t37 48.5
t58 30.5t69 18t78.5 8.5q5 0 19.5 0.5t21.5 1t20.5 2t20.5 3.5l17.5 5t16 8t11.5 11.5t8.5 15.5t2.5 20q0 50 -72 50q-85 0 -94 -65zM311 573h-154l27 130h154zM524 573h-154l27 130h154z" />
    <glyph glyph-name="aring" unicode="&#xe5;" horiz-adv-x="593" 
d="M161 144q0 -54 69 -54q110 0 129 148h-1q-13 -11 -48.5 -16t-67 -7t-56.5 -19.5t-25 -51.5zM220 359h-161q35 175 254 175q237 0 237 -136q0 -57 -51 -261q-16 -64 -16 -97q0 -19 7 -40h-167q-4 25 -4 50h-2q-45 -65 -157 -65q-169 0 -169 146q0 40 14.5 70.5t37 48.5
t58 30.5t69 18t78.5 8.5q5 0 19.5 0.5t21.5 1t20.5 2t20.5 3.5l17.5 5t16 8t11.5 11.5t8.5 15.5t2.5 20q0 50 -72 50q-85 0 -94 -65zM357 615q22 0 37 15.5t15 36.5q0 22 -15 37t-37 15t-37 -15t-15 -37q0 -21 15 -36.5t37 -15.5zM357 560q-44 0 -75.5 32t-31.5 75
q0 44 31.5 75.5t75.5 31.5t75.5 -31t31.5 -76q0 -44 -31.5 -75.5t-75.5 -31.5z" />
    <glyph glyph-name="ae" unicode="&#xe6;" horiz-adv-x="926" 
d="M877 218h-374q-1 -11 -1 -32q3 -86 85 -86q75 0 103 57h166q-57 -172 -269 -172q-144 0 -192 88q-65 -88 -235 -88q-169 0 -169 146q0 40 14.5 70.5t37 48.5t58 30.5t69 18t78.5 8.5q5 0 19.5 0.5t21.5 1t20.5 2t20.5 3.5l17.5 5t16 8t11.5 11.5t8.5 15.5t2.5 20
q0 50 -72 50q-85 0 -94 -65h-161q35 175 254 175q64 0 105 -13t68 -49q58 62 163 62q112 0 173.5 -63t61.5 -176q0 -25 -7 -77zM161 144q-2 -28 17.5 -41t48.5 -13q106 0 131 148h-3q-13 -11 -48 -16t-66.5 -7t-56 -19.5t-23.5 -51.5zM516 313h209q6 43 -15 74.5t-69 31.5
q-45 0 -78 -28t-47 -78z" />
    <glyph glyph-name="ccedilla" unicode="&#xe7;" horiz-adv-x="574" 
d="M364 198h165q-23 -108 -93.5 -160.5t-177.5 -52.5h-4l-40 -48v-2q10 3 31 3q34 0 58.5 -21t24.5 -54q0 -47 -38.5 -68t-89.5 -21q-47 0 -116 28l25 44q6 -2 19 -7t19.5 -7t17.5 -4t22 -2q19 0 34.5 9t15.5 26q0 15 -11.5 23t-27.5 8q-20 0 -35 -7l-22 25l60 79
q-89 13 -140.5 69.5t-51.5 152.5q0 140 85 231.5t224 91.5q103 0 167.5 -52t65.5 -152h-165q1 37 -21 59q-18 18 -55 20q-47 2 -78 -28t-42 -69t-11 -83q0 -57 22 -88t64 -31q77 0 99 88z" />
    <glyph glyph-name="egrave" unicode="&#xe8;" horiz-adv-x="611" 
d="M549 218h-374q-2 -20 -2 -35q8 -83 92 -83q78 0 99 57h166q-57 -172 -272 -172q-113 0 -181 57.5t-68 168.5q0 140 85 231.5t224 91.5q105 0 171 -59t66 -168q0 -45 -6 -89zM187 313h204q4 45 -17 75.5t-62 30.5q-96 0 -125 -106zM133 714h177l99 -146h-114z" />
    <glyph glyph-name="eacute" unicode="&#xe9;" horiz-adv-x="611" 
d="M549 218h-374q-2 -20 -2 -35q8 -83 92 -83q78 0 99 57h166q-57 -172 -272 -172q-113 0 -181 57.5t-68 168.5q0 140 85 231.5t224 91.5q105 0 171 -59t66 -168q0 -45 -6 -89zM187 313h204q4 45 -17 75.5t-62 30.5q-96 0 -125 -106zM245 568l108 146h185l-179 -146h-114z
" />
    <glyph glyph-name="ecircumflex" unicode="&#xea;" horiz-adv-x="611" 
d="M549 218h-374q-2 -20 -2 -35q8 -83 92 -83q78 0 99 57h166q-57 -172 -272 -172q-113 0 -181 57.5t-68 168.5q0 140 85 231.5t224 91.5q105 0 171 -59t66 -168q0 -45 -6 -89zM187 313h204q4 45 -17 75.5t-62 30.5q-96 0 -125 -106zM270 568h-128l145 146h146l83 -146h-125
l-45 82z" />
    <glyph glyph-name="edieresis" unicode="&#xeb;" horiz-adv-x="611" 
d="M549 218h-374q-2 -20 -2 -35q8 -83 92 -83q78 0 99 57h166q-57 -172 -272 -172q-113 0 -181 57.5t-68 168.5q0 140 85 231.5t224 91.5q105 0 171 -59t66 -168q0 -45 -6 -89zM187 313h204q4 45 -17 75.5t-62 30.5q-96 0 -125 -106zM320 573h-154l27 130h154zM533 573h-154
l27 130h154z" />
    <glyph glyph-name="igrave" unicode="&#xec;" horiz-adv-x="296" 
d="M-10 0l108 519h170l-108 -519h-170zM-24 714h177l99 -146h-114z" />
    <glyph glyph-name="iacute" unicode="&#xed;" horiz-adv-x="296" 
d="M-10 0l108 519h170l-108 -519h-170zM138 568l108 146h185l-179 -146h-114z" />
    <glyph glyph-name="icircumflex" unicode="&#xee;" horiz-adv-x="296" 
d="M-10 0l108 519h170l-108 -519h-170zM128 568h-128l145 146h146l83 -146h-125l-45 82z" />
    <glyph glyph-name="idieresis" unicode="&#xef;" horiz-adv-x="296" 
d="M-10 0l108 519h170l-108 -519h-170zM163 573h-154l27 130h154zM376 573h-154l27 130h154z" />
    <glyph glyph-name="eth" unicode="&#xf0;" horiz-adv-x="611" 
d="M258 -15q-113 0 -181 57.5t-68 168.5q1 130 76.5 209t183.5 79q71 0 108 -26l2 2q-31 51 -73 90l-130 -56l-44 56l116 50q-38 31 -79 51l142 63q43 -27 73 -55l120 52l37 -59l-105 -45q127 -115 127 -297q0 -148 -80 -244t-225 -96zM262 110q64 0 97.5 49t33.5 117
q0 98 -86 98q-63 0 -95.5 -48t-32.5 -109q0 -48 20 -77.5t63 -29.5z" />
    <glyph glyph-name="ntilde" unicode="&#xf1;" 
d="M-10 0l108 519h170l-14 -63h2q22 31 69 54.5t110 23.5q69 0 109 -39.5t40 -106.5q0 -34 -18 -112l-62 -276h-170l59 275q10 48 10 66q0 30 -17 46.5t-45 16.5q-15 0 -28.5 -3.5t-24 -7t-20 -13.5t-15.5 -15.5t-12.5 -21t-9.5 -21.5t-8 -25.5t-6 -24.5t-5.5 -27t-5.5 -25
l-46 -220h-170zM488 714h78q-27 -133 -117 -133q-26 0 -66 14l-42 14q-28 11 -42 11q-13 0 -25 -11.5t-14 -29.5h-78q6 51 39 91.5t82 40.5q20 0 55 -13l45 -17q25 -11 48 -11q25 0 37 44z" />
    <glyph glyph-name="ograve" unicode="&#xf2;" horiz-adv-x="611" 
d="M9 211q0 140 85 231.5t224 91.5q110 0 177.5 -60t67.5 -169q0 -141 -83 -230.5t-222 -89.5q-113 0 -181 57.5t-68 168.5zM179 217q0 -48 20 -77.5t63 -29.5q66 0 98.5 58t32.5 130q0 111 -86 111q-43 0 -73.5 -34.5t-42.5 -76.5t-12 -81zM133 714h177l99 -146h-114z" />
    <glyph glyph-name="oacute" unicode="&#xf3;" horiz-adv-x="611" 
d="M9 211q0 140 85 231.5t224 91.5q110 0 177.5 -60t67.5 -169q0 -141 -83 -230.5t-222 -89.5q-113 0 -181 57.5t-68 168.5zM179 217q0 -48 20 -77.5t63 -29.5q66 0 98.5 58t32.5 130q0 111 -86 111q-43 0 -73.5 -34.5t-42.5 -76.5t-12 -81zM245 568l108 146h185l-179 -146
h-114z" />
    <glyph glyph-name="ocircumflex" unicode="&#xf4;" horiz-adv-x="611" 
d="M9 211q0 140 85 231.5t224 91.5q110 0 177.5 -60t67.5 -169q0 -141 -83 -230.5t-222 -89.5q-113 0 -181 57.5t-68 168.5zM179 217q0 -48 20 -77.5t63 -29.5q66 0 98.5 58t32.5 130q0 111 -86 111q-43 0 -73.5 -34.5t-42.5 -76.5t-12 -81zM270 568h-128l145 146h146
l83 -146h-125l-45 82z" />
    <glyph glyph-name="otilde" unicode="&#xf5;" horiz-adv-x="611" 
d="M9 211q0 140 85 231.5t224 91.5q110 0 177.5 -60t67.5 -169q0 -141 -83 -230.5t-222 -89.5q-113 0 -181 57.5t-68 168.5zM179 217q0 -48 20 -77.5t63 -29.5q66 0 98.5 58t32.5 130q0 111 -86 111q-43 0 -73.5 -34.5t-42.5 -76.5t-12 -81zM468 714h78q-27 -133 -117 -133
q-26 0 -66 14l-42 14q-28 11 -42 11q-13 0 -25 -11.5t-14 -29.5h-78q6 51 39 91.5t82 40.5q20 0 55 -13l45 -17q25 -11 48 -11q25 0 37 44z" />
    <glyph glyph-name="odieresis" unicode="&#xf6;" horiz-adv-x="611" 
d="M9 211q0 140 85 231.5t224 91.5q110 0 177.5 -60t67.5 -169q0 -141 -83 -230.5t-222 -89.5q-113 0 -181 57.5t-68 168.5zM179 217q0 -48 20 -77.5t63 -29.5q66 0 98.5 58t32.5 130q0 111 -86 111q-43 0 -73.5 -34.5t-42.5 -76.5t-12 -81zM320 573h-154l27 130h154z
M533 573h-154l27 130h154z" />
    <glyph glyph-name="divide" unicode="&#xf7;" horiz-adv-x="600" 
d="M552 181h-504v144h504v-144zM201 460q0 41 29 70t70 29t70 -29t29 -70t-29 -70t-70 -29t-70 29t-29 70zM201 46q0 41 29 70t70 29t70 -29t29 -70t-29 -70t-70 -29t-70 29t-29 70z" />
    <glyph glyph-name="oslash" unicode="&#xf8;" horiz-adv-x="611" 
d="M559 543l34 -36l-70 -64q40 -55 40 -138q0 -141 -83 -230.5t-222 -89.5q-110 0 -174 52l-72 -66l-34 34l72 67q-41 55 -41 139q0 140 85 231.5t224 91.5q108 0 172 -55zM391 321l-193 -179q21 -32 64 -32q66 0 98.5 58t32.5 130q0 17 -2 23zM182 194l194 180
q-21 35 -69 35q-43 0 -73.5 -34.5t-42.5 -76.5t-12 -81q0 -16 3 -23z" />
    <glyph glyph-name="ugrave" unicode="&#xf9;" 
d="M602 519l-110 -519h-163l15 71h-2q-56 -86 -170 -86q-49 0 -83 16.5t-48 42t-19 44t-5 33.5q0 39 10 83l67 315h170l-59 -288q-7 -34 -7 -62q0 -24 14 -39t42 -15q94 0 118 123l60 281h170zM143 714h177l99 -146h-114z" />
    <glyph glyph-name="uacute" unicode="&#xfa;" 
d="M602 519l-110 -519h-163l15 71h-2q-56 -86 -170 -86q-49 0 -83 16.5t-48 42t-19 44t-5 33.5q0 39 10 83l67 315h170l-59 -288q-7 -34 -7 -62q0 -24 14 -39t42 -15q94 0 118 123l60 281h170zM305 568l108 146h185l-179 -146h-114z" />
    <glyph glyph-name="ucircumflex" unicode="&#xfb;" 
d="M602 519l-110 -519h-163l15 71h-2q-56 -86 -170 -86q-49 0 -83 16.5t-48 42t-19 44t-5 33.5q0 39 10 83l67 315h170l-59 -288q-7 -34 -7 -62q0 -24 14 -39t42 -15q94 0 118 123l60 281h170zM295 568h-128l145 146h146l83 -146h-125l-45 82z" />
    <glyph glyph-name="udieresis" unicode="&#xfc;" 
d="M602 519l-110 -519h-163l15 71h-2q-56 -86 -170 -86q-49 0 -83 16.5t-48 42t-19 44t-5 33.5q0 39 10 83l67 315h170l-59 -288q-7 -34 -7 -62q0 -24 14 -39t42 -15q94 0 118 123l60 281h170zM330 573h-154l27 130h154zM543 573h-154l27 130h154z" />
    <glyph glyph-name="yacute" unicode="&#xfd;" horiz-adv-x="537" 
d="M-52 -168l28 128q29 -4 65 -4q15 0 25 2t18.5 9.5t11 10t11 17.5t10.5 18l-96 506h173l39 -365h2l155 365h178l-264 -495q-57 -104 -82 -133q-46 -53 -130 -62q-27 -3 -61 -3q-27 0 -83 6zM258 568l108 146h185l-179 -146h-114z" />
    <glyph glyph-name="thorn" unicode="&#xfe;" 
d="M132 714h170l-52 -249h2q54 69 152 69q91 0 136.5 -64t45.5 -161q0 -80 -29 -152t-91.5 -122t-146.5 -50q-109 0 -151 82h-2l-49 -241h-170zM287 115q64 0 96.5 58t32.5 127q0 104 -89 104q-61 0 -94 -60t-33 -128q0 -45 21.5 -73t65.5 -28z" />
    <glyph glyph-name="ydieresis" unicode="&#xff;" horiz-adv-x="537" 
d="M-52 -168l28 128q29 -4 65 -4q15 0 25 2t18.5 9.5t11 10t11 17.5t10.5 18l-96 506h173l39 -365h2l155 365h178l-264 -495q-57 -104 -82 -133q-46 -53 -130 -62q-27 -3 -61 -3q-27 0 -83 6zM283 573h-154l27 130h154zM496 573h-154l27 130h154z" />
    <glyph glyph-name="dotlessi" unicode="&#x131;" horiz-adv-x="296" 
d="M-10 0l108 519h170l-108 -519h-170z" />
    <glyph glyph-name="Lslash" unicode="&#x141;" horiz-adv-x="593" 
d="M-8 0l58 277l-88 -47l24 119l88 46l67 319h186l-44 -211l182 96l-25 -119l-183 -98l-46 -222h334l-34 -160h-519z" />
    <glyph glyph-name="lslash" unicode="&#x142;" horiz-adv-x="296" 
d="M-10 0l51 244l-93 -73l23 109l92 73l75 361h170l-42 -202l94 73l-23 -109l-93 -73l-84 -403h-170z" />
    <glyph glyph-name="OE" unicode="&#x152;" horiz-adv-x="1111" 
d="M1139 714l-34 -160h-344l-24 -114h312l-30 -144h-312l-28 -136h348l-33 -160h-517l13 56h-2q-57 -71 -184 -71q-136 0 -203.5 85.5t-67.5 222.5q0 112 46 211t136 162t204 63q67 0 110 -17t73 -57l11 59h526zM430 576q-53 0 -95 -27.5t-66.5 -71t-37 -92.5t-12.5 -98
q0 -66 32 -107.5t97 -41.5q95 0 149 85t54 221q0 65 -31.5 98.5t-89.5 33.5z" />
    <glyph glyph-name="oe" unicode="&#x153;" horiz-adv-x="944" 
d="M891 218h-374q-1 -9 -1 -30q0 -39 24.5 -63.5t67.5 -24.5q70 0 99 57h164q-57 -172 -269 -172q-130 0 -180 78q-69 -78 -175 -78q-238 0 -238 240q0 131 86.5 220t215.5 89q53 0 100.5 -19t75.5 -57q73 76 187 76q102 0 163.5 -60t61.5 -170q0 -47 -8 -86zM311 419
q-68 0 -100 -63t-32 -147q0 -109 79 -109q37 0 64 22.5t41 57.5t20 69.5t6 67.5q0 102 -78 102zM534 313h201q6 106 -75 106q-51 0 -83 -28t-43 -78z" />
    <glyph glyph-name="Scaron" unicode="&#x160;" horiz-adv-x="667" 
d="M0 240h186q0 -56 31.5 -79t99.5 -23q53 0 79.5 20t26.5 51q0 20 -11 35t-32.5 25.5t-41.5 16.5t-50.5 14t-46.5 14q-76 27 -118.5 69t-42.5 115q0 77 43.5 131t107.5 77t139 23q60 0 108.5 -12t88 -37.5t60.5 -71.5t19 -109h-186q0 39 -25 58t-75 19q-38 0 -66 -16.5
t-28 -47.5q0 -28 20.5 -39.5t90.5 -30.5q12 -3 19 -5q43 -12 76 -26.5t66.5 -39.5t52 -63.5t18.5 -88.5q0 -100 -85.5 -167t-236.5 -67q-132 0 -210 66t-77 189zM217 909h125l45 -82l76 82h128l-145 -146h-146z" />
    <glyph glyph-name="scaron" unicode="&#x161;" horiz-adv-x="537" 
d="M-11 170h156q-1 -32 19 -54q22 -21 67 -21q28 0 52 12.5t24 40.5q0 10 -2 17t-8.5 12.5t-11.5 9.5t-18.5 8t-22 6t-29 7t-32.5 8q-33 7 -55.5 16t-44 24.5t-32.5 41t-11 60.5q0 50 23 86t61.5 54.5t79.5 27t87 8.5q44 0 80.5 -8t69 -26t50 -52t14.5 -82h-154q2 29 -13 45
q-15 18 -51 18q-31 0 -54 -12t-23 -37q0 -8 3 -14t10 -11t13 -8.5t19 -7.5t21 -6t25 -6t25 -6q41 -10 65 -19t46 -25.5t31 -41.5t9 -62q0 -188 -266 -188q-215 0 -222 185zM152 714h125l45 -82l76 82h128l-145 -146h-146z" />
    <glyph glyph-name="Ydieresis" unicode="&#x178;" horiz-adv-x="648" 
d="M157 0l57 270l-165 444h192l85 -297l199 297h223l-350 -444l-57 -270h-184zM339 768h-154l27 130h154zM552 768h-154l27 130h154z" />
    <glyph glyph-name="Zcaron" unicode="&#x17d;" horiz-adv-x="667" 
d="M-43 0l31 160l447 394h-348l33 160h584l-32 -160l-460 -394h392l-32 -160h-615zM217 909h125l45 -82l76 82h128l-145 -146h-146z" />
    <glyph glyph-name="zcaron" unicode="&#x17e;" horiz-adv-x="537" 
d="M-42 0l28 125l314 269h-243l26 125h451l-26 -125l-315 -269h282l-27 -125h-490zM152 714h125l45 -82l76 82h128l-145 -146h-146z" />
    <glyph glyph-name="florin" unicode="&#x192;" 
d="M0 -168l35 127q15 -3 32 -3q53 0 72 67l82 292h-98l30 105h98l32 113q29 103 78.5 149.5t143.5 46.5q50 0 96 -13l-35 -121q-4 0 -16.5 2t-19.5 2q-33 0 -50 -16t-27 -50l-32 -113h99l-29 -105h-100l-83 -292q-11 -38 -20 -62.5t-26.5 -53t-40.5 -44t-59.5 -26.5
t-85.5 -11q-1 0 -76 6z" />
    <glyph glyph-name="circumflex" unicode="&#x2c6;" horiz-adv-x="259" 
d="M109 568h-128l145 146h146l83 -146h-125l-45 82z" />
    <glyph glyph-name="caron" unicode="&#x2c7;" horiz-adv-x="259" 
d="M13 714h125l45 -82l76 82h128l-145 -146h-146z" />
    <glyph glyph-name="breve" unicode="&#x2d8;" horiz-adv-x="259" 
d="M20 714h69q3 -70 88 -70q90 0 120 70h71q-15 -74 -61.5 -111t-130.5 -37q-75 0 -119.5 37.5t-36.5 110.5z" />
    <glyph glyph-name="dotaccent" unicode="&#x2d9;" horiz-adv-x="259" 
d="M274 573h-154l27 130h154z" />
    <glyph glyph-name="ring" unicode="&#x2da;" horiz-adv-x="259" 
d="M250 615q22 0 37 15.5t15 36.5q0 22 -15 37t-37 15t-37 -15t-15 -37q0 -21 15 -36.5t37 -15.5zM250 560q-44 0 -75.5 32t-31.5 75q0 44 31.5 75.5t75.5 31.5t75.5 -31t31.5 -76q0 -44 -31.5 -75.5t-75.5 -31.5z" />
    <glyph glyph-name="ogonek" unicode="&#x2db;" horiz-adv-x="259" 
d="M141 3h74q-65 -43 -92.5 -72t-27.5 -55q0 -34 32 -34q35 0 61 34l44 -16q-53 -88 -140 -88q-20 0 -38.5 5t-36 24t-17.5 51q0 35 28 70.5t113 80.5z" />
    <glyph glyph-name="tilde" unicode="&#x2dc;" horiz-adv-x="259" 
d="M302 714h78q-27 -133 -117 -133q-26 0 -66 14l-42 14q-27 11 -42 11q-13 0 -25 -11.5t-14 -29.5h-78q6 51 39 91.5t82 40.5q20 0 55 -13l45 -17q25 -11 48 -11q25 0 37 44z" />
    <glyph glyph-name="hungarumlaut" unicode="&#x2dd;" horiz-adv-x="259" 
d="M108 714h185l-179 -146h-113zM346 714h185l-179 -146h-113z" />
    <glyph glyph-name="endash" unicode="&#x2013;" horiz-adv-x="500" 
d="M494 200h-500l12 144h500z" />
    <glyph glyph-name="emdash" unicode="&#x2014;" horiz-adv-x="1000" 
d="M864 200h-740l12 144h740z" />
    <glyph glyph-name="quoteleft" unicode="&#x2018;" horiz-adv-x="296" 
d="M270 540l-37 -176h-162l37 176q40 169 198 174l-17 -78q-38 -1 -61.5 -27.5t-29.5 -68.5h72z" />
    <glyph glyph-name="quoteright" unicode="&#x2019;" horiz-adv-x="296" 
d="M111 538l37 176h162l-37 -176q-40 -169 -198 -174l17 78q38 1 61.5 27.5t29.5 68.5h-72z" />
    <glyph glyph-name="quotesinglbase" unicode="&#x201a;" horiz-adv-x="296" 
d="M-1 0l37 176h162l-37 -176q-40 -169 -198 -174l17 78q38 1 61.5 27.5t29.5 68.5h-72z" />
    <glyph glyph-name="quotedblleft" unicode="&#x201c;" horiz-adv-x="500" 
d="M489 540l-37 -176h-162l37 176q40 169 198 174l-17 -78q-38 -1 -61.5 -27.5t-29.5 -68.5h72zM263 540l-37 -176h-162l37 176q40 169 198 174l-17 -78q-38 -1 -61.5 -27.5t-29.5 -68.5h72z" />
    <glyph glyph-name="quotedblright" unicode="&#x201d;" horiz-adv-x="500" 
d="M326 538l37 176h162l-37 -176q-40 -169 -198 -174l17 78q38 1 61.5 27.5t29.5 68.5h-72zM100 538l37 176h162l-37 -176q-40 -169 -198 -174l17 78q38 1 61.5 27.5t29.5 68.5h-72z" />
    <glyph glyph-name="quotedblbase" unicode="&#x201e;" horiz-adv-x="500" 
d="M212 0l37 176h162l-37 -176q-40 -169 -198 -174l17 78q38 1 61.5 27.5t29.5 68.5h-72zM-14 0l37 176h162l-37 -176q-40 -169 -198 -174l17 78q38 1 61.5 27.5t29.5 68.5h-72z" />
    <glyph glyph-name="dagger" unicode="&#x2020;" 
d="M122 -174l114 550h-180l30 144h180l41 194h165l-41 -194h182l-30 -144h-182l-114 -550h-165z" />
    <glyph glyph-name="daggerdbl" unicode="&#x2021;" 
d="M122 -174l41 194h-179l30 144h182l45 212h-181l30 144h178l41 194h164l-41 -194h182l-30 -144h-179l-45 -212h177l-30 -144h-180l-41 -194h-164z" />
    <glyph glyph-name="bullet" unicode="&#x2022;" horiz-adv-x="500" 
d="M72 357q0 74 52 126t126 52t126.5 -52t52.5 -126t-52.5 -126.5t-126.5 -52.5t-126 52.5t-52 126.5z" />
    <glyph glyph-name="ellipsis" unicode="&#x2026;" horiz-adv-x="1000" 
d="M169 0h-183l37 176h183zM502 0h-183l37 176h183zM835 0h-183l37 176h183z" />
    <glyph glyph-name="perthousand" unicode="&#x2030;" horiz-adv-x="1148" 
d="M199 428q37 0 55.5 53.5t18.5 100.5q0 54 -32 54q-39 -1 -58 -54.5t-19 -102.5q0 -20 8.5 -35.5t26.5 -15.5zM193 -27h-106l511 751h106zM190 358q-54 0 -88 34.5t-34 95.5q0 93 46.5 155.5t133.5 62.5q121 0 121 -130q0 -54 -17 -101.5t-59.5 -82t-102.5 -34.5zM901 -9
q-54 0 -88 34.5t-34 95.5q0 93 46.5 155.5t133.5 62.5q121 0 121 -130q0 -54 -17 -101.5t-59.5 -82t-102.5 -34.5zM910 61q37 0 55.5 53.5t18.5 100.5q0 54 -32 54q-39 -1 -58 -54.5t-19 -102.5q0 -20 8.5 -35.5t26.5 -15.5zM545 -9q-54 0 -88 34.5t-34 95.5
q0 93 46.5 155.5t133.5 62.5q121 0 121 -130q0 -54 -17 -101.5t-59.5 -82t-102.5 -34.5zM554 61q37 0 55.5 53.5t18.5 100.5q0 54 -32 54q-39 -1 -58 -54.5t-19 -102.5q0 -20 8.5 -35.5t26.5 -15.5z" />
    <glyph glyph-name="guilsinglleft" unicode="&#x2039;" horiz-adv-x="241" 
d="M139 58l-131 140l31 148l186 122l-29 -139l-106 -70l74 -80z" />
    <glyph glyph-name="guilsinglright" unicode="&#x203a;" horiz-adv-x="241" 
d="M77 468l131 -140l-31 -148l-186 -122l29 139l106 70l-74 80z" />
    <glyph glyph-name="fraction" unicode="&#x2044;" horiz-adv-x="167" 
d="M-62 -27h-103l393 751h103z" />
    <glyph glyph-name="trademark" unicode="&#x2122;" horiz-adv-x="1000" 
d="M386 714v-95h-110v-317h-125v317h-110v95h345zM625 714l89 -239l89 239h156v-412h-110v270h-2l-89 -270h-88l-89 270h-2v-270h-110v412h156z" />
    <glyph glyph-name="minus" unicode="&#x2212;" 
d="M552 181h-504v144h504v-144z" />
    <glyph glyph-name="fi" unicode="&#xfb01;" horiz-adv-x="648" 
d="M14 0l86 409h-83l23 110h83q22 88 34 112q45 88 176 88q60 0 108 -8l-24 -120q-3 0 -19.5 1.5t-25.5 1.5q-22 0 -37 -5.5t-23.5 -17.5t-12 -23t-6.5 -29h99l-23 -110h-99l-86 -409h-170zM661 714l-27 -130h-170l27 130h170zM342 0l108 519h170l-108 -519h-170z" />
    <glyph glyph-name="fl" unicode="&#xfb02;" horiz-adv-x="648" 
d="M342 0l149 714h170l-149 -714h-170zM14 0l86 409h-83l23 110h83q22 88 34 112q45 88 176 88q60 0 108 -8l-24 -120q-3 0 -19.5 1.5t-25.5 1.5q-22 0 -37 -5.5t-23.5 -17.5t-12 -23t-6.5 -29h99l-23 -110h-99l-86 -409h-170z" />
    </font>
</defs>
</svg>
